вход на сайт

Имя пользователя :
Пароль :

Восстановление пароля Регистрация
Любовь и смерть / Love and Death (Вуди Аллен, комедия, военный, 1975) [DVDRip, Профессиональный (многоголосый, закадровый)]
Рейтинг:
(голосов: 1)



[img]{THEME}/images/logopost.png[/img]



Любовь и смерть / Love and Death

Год выпуска: 1975
Страна: США, Франция
Производство: Jack Rollins & Charles H. Joffe Productions
Жанр: комедия, военный

Режиссёр: Вуди Аллен
В ролях: Вуди Аллен, Дайан Китон, Джорджес Эйдит, Фрэнк Эду, Эдмонд Ардиссон, Федор Аткин, Альбер Ожье, Ив Барсак, Ллойд Баттиста

Перевод: Профессиональный (многоголосый, закадровый)
Субтитры: Отсутствуют

Описание:
Фильм, в котором Аллен «издевается» над русской литературой, какой она видится экранизаторам русских романов девятнадцатого века. Молодой русский дворянин из провинции пытается избежать призыва на войну с Наполеоном. Он ведет бесконечные «интеллигентские» разговоры со своей кузиной. Политика, философия и война — эти высокие материи стали темой бесконечного фейерверка иронии и юмора.


Дополнительно:
Рейтинг MPAA: ▼
Рейтинг PG - Рекомендуется присутствие родителей



MediaInfo ▼Text
Общее
Полное имя :D:РаздачаЛюбовь и смертьLove_and_death.avi
Формат :AVI
Размер :700 MiB
Продолжительность :01:21:23.640
Общий поток :1 202 Kbps
Программа кодирования :VirtualDubMod 1.5.4.1 (build 2178/release)

Видео
Идентификатор :0
Формат :MPEG-4 Visual
Профиль формата :Advanced [email protected]
Параметр BVOP формата :1
Параметр Qpel формата :No
Параметр GMC формата :0
Параметр Matrix формата :Default (H.263)
Идентификатор кодека :XVID
Продолжительность :1h 21mn 23s 640ms
Битрейт :1 067 Kbps
Ширина :608 pixels
Высота :336 pixels
Соотношение сторон :1.810
Частота кадров :25.000 fps
Глубина цвета :8 bits
Подвыборка цветности :4:2:0
Цветовое пространство :YUV
Тип развертки :Progressive
Бит/(Пиксели*Кадры) :0.209
Размер потока :621 MiB (89%)
Библиотека кодирования :XviD0043

Аудио #1
Идентификатор :1
Формат :MPEG Audio
Идентификатор кодека :55
Продолжительность :01:21:23.640
Вид битрейта :Constant
Битрейт :128 Kbps
Канал(ы) :2 channels
Частота :48.0 KHz
Метод сжатия :Lossy
Размер потока :74.5 MiB (11%)


ed8c44a8c7413fc0823fab903df70fe7a145594bЛюбовь и смерть / Love and Death (Вуди Аллен, комедия, военный, 1975) [DVDRip, Профессиональный (многоголосый, закадровый)] Любовь и смерть / Love and Death (Вуди Аллен, комедия, военный, 1975) [DVDRip, Профессиональный (многоголосый, закадровый)] " />

Аплоадер: Админ, дата: 23-08-2012, 02:09, торрент скачан: 359 раз

Понравилась раздача? Посмотрите эти:
  • Репли-Кейт / Repli-Kate (Фрэнк Лонго, фантастика, комедия, 2002) [DVDRip, П ...
  • Что нового, кошечка? / Whats New Pussycat (Клайв Доннер, Ричард Талмадж, ко ...
  • Манхэттен / Manhattan (Вуди Аллен, драма, мелодрама, комедия, 1979) [BDRip, ...
  • Мы не женаты / Were Not Married! (Эдмунд Гулдинг, мелодрама, комедия, 1952) ...
  • Светлое будущее 3: Любовь и смерть в Сайгоне / Ying hung boon sik III jik y ...
  • Энни Холл / Annie Hall (Вуди Аллен, драма, мелодрама, комедия, 1977) [BDRip ...
  • Всё, что вы хотели знать о сексе, но боялись спросить / Everything You Alwa ...
  • Любовь и смерть / Love and Death (Вуди Аллен, комедия, 1975 г.) [DVDRip, Пр ...
  • Все говорят что я люблю тебя / Everyone Says I Love You (Вуди Аллен, Мелод ...
  • Неприятности с Гарри / The Trouble with Harry (Альфред Хичкок, комедия, три ...
  • Афера / The Sting (Джордж Рой Хилл, комедия, криминал, 1973) [DVDRip, Профе ...
  • Великая Афродита / Mighty Aphrodite (Вуди Аллен, Мелодрама, 1995) [DVDrip, ...
  • Сенсация / Scoop (Вуди Аллен, комедия, 2006) [DVDRip,Многоголосый, закадров ...
  • Все говорят, что я люблю тебя / Everyone Says I Love You (Вуди Аллен, комед ...
  • Зелиг / Zelig (Вуди Аллен, фэнтези, комедия, 1983) [DVDRip, Авторский (одно ...
  • Консьерж / For Love or Money (Барри Зонненфельд, Мелодрама, комедия, 1993) ...
  • Войны Пентагона / The Pentagon Wars (Ричард Бенджамин, Комедия, военный, 19 ...
  • Повышение / The Promotion (Стив Конрад, Комедия, 2008) [DVDRip, Профессиона ...
  • Влюбленный гастролер / Sweet talker (Майкл Дженкинс, Комедия, 1991) [DVDRip ...
  • Эпоха радио / Radio Days (Вуди Аллен, комедия, семейный, 1987) [DVDRip, Про ...
  • Информация
    Посетители, находящиеся в группе Гости, не могут оставлять комментарии к данной публикации.