вход на сайт

Имя пользователя :
Пароль :

Восстановление пароля Регистрация
Кутилы / Les bons vivants (Жиль Гранжье, Жорж Лотнер, драма, комедия, 1965) [DVDRip, Профессиональный (одноголосый, закадровый)]
Рейтинг:
(голосов: 1)



[img]{THEME}/images/logopost.png[/img]



Кутилы / Les bons vivants

Год выпуска: 1965
Страна: Франция, Италия
Производство: Les Films Corona S.R.L. de Nanterre, Sancro Film, Transinter Films
Жанр: драма, комедия

Режиссёр: Жиль Гранжье, Жорж Лотнер
В ролях: Луи Де Фюнес, Бернар Блие, Мирелль Дарк, Andrea Parisy, Жан Лефевр, Бернадетт Лафон. Franck Villard, Пьер Бертин, Darry Cowl, Jean Carmet

Перевод: Профессиональный (одноголосый, закадровый)
Субтитры: Отсутствуют

Описание:
Кинокартина состоящая из трех новелл: «Закрытие», «Процесс», «Кутилы». События всех трех частей развиваются вокруг обычного уличного фонаря… В первой части фонарь, висящий над входом в бордель, снимают. Во второй крадут вместе с драгоценностями у молодой баронессы. Ну а в конце третьей части герой Луи де Фюнеса вешает фонарь при входе в свое жилище.


Дополнительно:
MediaInfo ▼Text
Общее
Полное имя :L:РАЗДАЧАКутилыКутилы.avi
Формат :AVI
Размер :1.37 GiB
Продолжительность :01:40:14.000
Общий поток :1 954 Kbps
Программа кодирования :VirtualDubMod 1.5.4.1 (build 2178/release)
Библиотека кодирования :VirtualDubMod build 2178/release

Видео
Идентификатор :0
Формат :MPEG-4 Visual
Профиль формата :Advanced [email protected]
Параметр BVOP формата :1
Параметр Qpel формата :No
Параметр GMC формата :0
Параметр Matrix формата :Custom
Идентификатор кодека :XVID
Продолжительность :1h 40mn 14s 0ms
Битрейт :1 769 Kbps
Ширина :720 pixels
Высота :432 pixels
Соотношение сторон :1.667
Частота кадров :25.000 fps
Глубина цвета :8 bits
Подвыборка цветности :4:2:0
Цветовое пространство :YUV
Тип развертки :Progressive
Бит/(Пиксели*Кадры) :0.227
Размер потока :1.24 GiB (91%)
Библиотека кодирования :XviD0047

Аудио #1
Идентификатор :1
Формат :MPEG Audio
Идентификатор кодека :55
Продолжительность :01:40:04.608
Вид битрейта :Variable
Битрейт :173 Kbps
Канал(ы) :2 channels
Частота :48.0 KHz
Метод сжатия :Lossy
Размер потока :124 MiB (9%)
Язык &nb
fb57427b910a1ce3ed0da3c79b8121d264a34a41Кутилы / Les bons vivants (Жиль Гранжье, Жорж Лотнер, драма, комедия, 1965) [DVDRip, Профессиональный (одноголосый, закадровый)] Кутилы / Les bons vivants (Жиль Гранжье, Жорж Лотнер, драма, комедия, 1965) [DVDRip, Профессиональный (одноголосый, закадровый)] " />

Аплоадер: Админ, дата: 21-08-2012, 23:06, торрент скачан: 359 раз

Понравилась раздача? Посмотрите эти:
  • Воздыхатель / Le soupirant (Пьер Этекс, комедия, 1962) [DVDRip, Профессиона ...
  • Несколько слишком спокойных господ / Quelques Messieurs Trop Tranquilles (Ж ...
  • Убийца живет в доме... №21 / Lassassin habite... au 21 (Анри-Жорж Клузо, тр ...
  • Босс / Le Pacha (Жорж Лотнер, драма, криминал, 1968) [DVDRip, Профессиональ ...
  • Привет вам от гориллы / Le gorille vous salue bien (Бернар Бордери, боевик, ...
  • Сладкая жизнь / La dolce vita (Федерико Феллини, драма, комедия, 1959) [DVD ...
  • Казанова 70 / Casanova 70 (Марио Моничелли, драма, комедия, 1965) [DVDRip, ...
  • Газойль / Gas-oil (Жиль Гранжье, драма, криминал, 1955) [DVDRip, Профессион ...
  • Безумный Пьеро / Pierrot le fou (Жан-Люк Годар, мюзикл, драма, мелодрама, к ...
  • Путешествие на Луну / Le Voyage dans la Lune (Жорж Мельес, короткометражка, ...
  • Дьявол и десять заповедей / Le diable et les dix commandements (Жюльен Дюви ...
  • Бог знает, мистер Аллисон / Heaven Knows, Mr. Allison (Джон Хьюстон, боевик ...
  • Жил-был полицейский / Il etait une fois un flic (Жорж Лотнер, комедия, крим ...
  • Ритуал / Riten (Ингмар Бергман, драма, 1969) [DVDRip, Профессиональный (одн ...
  • Дьявольское око / Djдvulens цga (Ингмар Бергман, фэнтези, драма, комедия, 1 ...
  • Урок любви / En lektion i karlek (Ингмар Бергман, драма, комедия, 1954) [DV ...
  • На хуторе у леса / Na samote u lesa (Иржи Менцель, драма, комедия, семейный ...
  • Уик-энд / Week End (Жан-Люк Годар, драма, комедия, 1967) [DVDRip, Профессио ...
  • Интимные услуги / Personal Services (Терри Джонс, Комедия, 1986) [DVDRip, П ...
  • Медведи и я / The Bears and I (Бернард МакЭвети, драма, семейный, 1974) [DV ...
  • Информация
    Посетители, находящиеся в группе Гости, не могут оставлять комментарии к данной публикации.