вход на сайт

Имя пользователя :
Пароль :

Восстановление пароля Регистрация
Лето с Моникой / Sommaren med Monika (Ингмар Бергман, драма, мелодрама, 1953) [DVDRip, Профессиональный (многоголосый, закадровый) + оригинал, Субтитры: Rus.]
Рейтинг:
(голосов: 1)



[img]{THEME}/images/logopost.png[/img]



Лето с Моникой / Sommaren med Monika

Год выпуска: 1953
Страна: Швеция
Производство: Svensk Filmindustri (SF) AB
Жанр: драма, мелодрама

Режиссёр: Ингмар Бергман
В ролях: Харриет Андерссон, Ларс Экборг, Дагмар Эббесен, Аке Фриделл, Наеми Бризе

Перевод: Профессиональный (многоголосый, закадровый) + оригинал
Субтитры: Русские

Описание:
Двое молодых людей — Харри и Моника — вырываются на свободу. Они любят друг друга и убегают от надоевшей им реальности на природу: фьорды, тихие бухты, утесы, прогулки на лодке. Но надолго ли?


Дополнительно:
MediaInfo ▼Text
Общее
Полное имя :K:РАЗДАЧАИНГМАР БЕРГМАНЛето с МоникойЛето с Моникойleto_s_monikoy.avi
Формат :AVI
Размер :1.35 GiB
Продолжительность :01:31:43.000
Общий поток :2 099 Kbps
Программа кодирования :VirtualDubMod 1.5.4.1 (build 2178/release)
Библиотека кодирования :VirtualDubMod build 2178/release

Видео
Идентификатор :0
Формат :MPEG-4 Visual
Профиль формата :[email protected]
Параметр BVOP формата :No
Параметр Qpel формата :No
Параметр GMC формата :0
Параметр Matrix формата :Default (H.263)
Идентификатор кодека :XVID
Продолжительность :1h 31mn 43s 0ms
Битрейт :1 701 Kbps
Ширина :720 pixels
Высота :544 pixels
Соотношение сторон :1.324
Частота кадров :25.000 fps
Глубина цвета :8 bits
Подвыборка цветности :4:2:0
Цветовое пространство :YUV
Тип развертки :Progressive
Бит/(Пиксели*Кадры) :0.174
Размер потока :1.09 GiB (81%)
Библиотека кодирования :XviD0046

Аудио #1
Идентификатор :1
Формат :AC-3
Формат/Информация :Audio Coding 3
Идентификатор кодека :2000
Продолжительность :01:31:42.881
Вид битрейта :Constant
Битрейт :192 Kbps
Канал(ы) :2 channels
Расположение каналов :Front: L R
Частота :48.0 KHz
Битовая глубина :16 bits
Метод сжатия :Lossy
Размер потока :126 MiB (9%)

Аудио #2
Идентификатор &nbs
3c5a057f4e0b8b16eafd5b53b60bbe0ba1134b88Лето с Моникой / Sommaren med Monika (Ингмар Бергман, драма, мелодрама, 1953) [DVDRip, Профессиональный (многоголосый, закадровый) + оригинал, Субтитры: Rus.] Лето с Моникой / Sommaren med Monika (Ингмар Бергман, драма, мелодрама, 1953) [DVDRip, Профессиональный (многоголосый, закадровый) + оригинал, Субтитры: Rus.] " />

Аплоадер: Админ, дата: 21-08-2012, 22:37, торрент скачан: 359 раз

Понравилась раздача? Посмотрите эти:
  • Земляничная поляна / Smultronstället (Ингмар Бергман, драма, 1957) [BDRip, ...
  • С другим лицом / Kudrat (Радж Н. Сиппи, драма, мелодрама, комедия, 1998) [D ...
  • Джентельменское соглашение / Gentlemans Agreement (Элиа Казан, драма, мелод ...
  • Из жизни марионеток / Aus Dem Leben Der Marionetten (Ингмар Бергман, драма, ...
  • Дождь над нашей любовью / Det regnar pе vеr kдrlek (Ингмар Бергман, драма, ...
  • Лето с Моникой / Sommaren med Monika (Ингмар Бергман, драма, мелодрама, 195 ...
  • Пэйтон Плейс / Peyton Place (Марк Робсон, драма, мелодрама, 1957) [DVDRip, ...
  • Под знаком Козерога / Under Capricorn (Альфред Хичкок, драма, мелодрама, 19 ...
  • Осенняя соната / Hostsonaten (Ингмар Бергман, драма, музыка, 1978) [DVDRip, ...
  • Консьерж / For Love or Money (Барри Зонненфельд, Мелодрама, комедия, 1993) ...
  • Причастие / Nattvardsgдsterna (Ингмар Бергман, драма, 1962) [DVDRip, Профес ...
  • Молчание / Tystnaden (Ингмар Бергман, драма, 1963) [DVDRip, Профессиональны ...
  • Вечер шутов / Gycklarnas afton (Ингмар Бергман, драма, 1953) [DVDRip, Профе ...
  • После репетиции / Efter repetitionen (Ингмар Бергман, драма, 1984) [DVDRip, ...
  • Ритуал / Riten (Ингмар Бергман, драма, 1969) [DVDRip, Профессиональный (одн ...
  • Девичий источник / Jungfrukallan (Ингмар Бергман, драма, криминал, 1960) [D ...
  • Дьявольское око / Djдvulens цga (Ингмар Бергман, фэнтези, драма, комедия, 1 ...
  • Урок любви / En lektion i karlek (Ингмар Бергман, драма, комедия, 1954) [DV ...
  • Уик-энд / Week End (Жан-Люк Годар, драма, комедия, 1967) [DVDRip, Профессио ...
  • Улыбки летней ночи / Sommarnattens leende (Ингмар Бергман, мелодрама, комед ...
  • Информация
    Посетители, находящиеся в группе Гости, не могут оставлять комментарии к данной публикации.