вход на сайт

Имя пользователя :
Пароль :

Восстановление пароля Регистрация
Король Генрих V / The Chronicle History of King Henry the Fift with His Battell Fought at Agincourt in France (Лоуренс Оливье, драма, военный, биография, история, 1944) [DVDRip, Профессиональный (многоголосый, закадровый)+оригинал]
Рейтинг:
(голосов: 1)



[img]{THEME}/images/logopost.png[/img]





Король Генрих V / The Chronicle History of King Henry the Fift with His Battell Fought at Agincourt in France

Год выпуска: 1944
Страна: Великобритания
Производство: Two Cities Films Ltd.
Жанр: драма, военный, биография, история

Режиссёр: Лоуренс Оливье
В ролях: Лоуренс Оливье, Лесли Бэнкс, Роберт Ньютон, Рене Эшерсон, Эзмонд Найт, Лео Генн, Харкорт Уильямс, Эрнест Тесиджер

Перевод: Профессиональный (многоголосый, закадровый)+оригинал
Субтитры: Отсутствуют

Описание:
Действие происходит в 1415 году, когда 28-летний английский король вторгся во Францию, пытаясь укрепить свой пошатнувшийся трон. После ряда дорого доставшихся побед жестоко потрепанная армия Генриха сталкивается с пятикратно превосходящими их силами французов.


Дополнительно:
MediaInfo ▼Text
Общее
Полное имя :L:РАЗДАЧАКороль Генрих Vgenrih_pjatiy.avi
Формат :AVI
Размер :1.44 GiB
Продолжительность :02:16:53.163
Общий поток :1 509 Kbps

Видео
Идентификатор :0
Формат :MPEG-4 Visual
Профиль формата :Advanced [email protected]
Параметр BVOP формата :1
Параметр Qpel формата :No
Параметр GMC формата :0
Параметр Matrix формата :Default (MPEG)
Идентификатор кодека :XVID
Продолжительность :2h 16mn 53s 163ms
Битрейт :1 335 Kbps
Ширина :640 pixels
Высота :480 pixels
Соотношение сторон :1.333
Частота кадров :23.976 fps
Глубина цвета :8 bits
Подвыборка цветности :4:2:0
Цветовое пространство :YUV
Тип развертки :Progressive
Бит/(Пиксели*Кадры) :0.181
Размер потока :1.28 GiB (88%)
Библиотека кодирования :XviD0046

Аудио #1
Идентификатор :1
Формат :MPEG Audio
Идентификатор кодека :55
Продолжительность :02:16:53.159
Вид битрейта :Constant
Битрейт :80.0 Kbps
Канал(ы) :1 channel
Частота :44.1 KHz
Метод сжатия :Lossy
Размер потока :78.3 MiB (5%)
Язык :un

Аудио #2
Идентификатор :2
Формат  
054572ec6fbe0894291797d63d5a94b8a49d4c0cКороль Генрих V / The Chronicle History of King Henry the Fift with His Battell Fought at Agincourt in France (Лоуренс Оливье, драма, военный, биография, история, 1944) [DVDRip, Профессиональный (многоголосый, закадровый)+оригинал] Король Генрих V / The Chronicle History of King Henry the Fift with His Battell Fought at Agincourt in France (Лоуренс Оливье, драма, военный, биография, история, 1944) [DVDRip, Профессиональный (многоголосый, закадровый)+оригинал] " />

Аплоадер: Админ, дата: 19-08-2012, 05:17, торрент скачан: 359 раз

Понравилась раздача? Посмотрите эти:
  • Паттон / Patton (Фрэнклин Джей Шеффнер, драма, военный, биография, история, ...
  • Иметь и не иметь / To Have and Have Not (Ховард Хоукс, триллер, мелодрама, ...
  • Королевская шлюха / La putain du roi (Аксель Корти, драма, мелодрама, прикл ...
  • Айрик (Генрих Малян, драма, семейный, 1972) [DVDRip, Профессиональный (пол ...
  • Мы и наши горы (Генрих Малян, драма, комедия, 1969) [DVDRip, Профессиональн ...
  • Королевский моряк / Single-Handed (Рой Боултинг, боевик, драма, военный, 19 ...
  • Ричард Львиное Сердце / King Richard and the Crusaders (Дэвид Батлер , мело ...
  • Король Лир / King Lear (Питер Брук, трагедия, 1970) [DVDRip, Профессиональн ...
  • Убийство Генриха IV / Lassassinat dHenri IV: 14 mai 1610 (Жак Малатье, исто ...
  • Пламя над островом / Fire Over England (Уильям К. Ховард, мелодрама, приклю ...
  • Постоялый двор шестой степени счастья / The Inn of the Sixth Happiness (Мар ...
  • Небо и земля / Heaven & Earth (Оливер Стоун, боевик, драма, военный, биогра ...
  • Эль Сид / El Cid (Энтони Манн, боевик, драма, мелодрама, военный, биография ...
  • Чудесное спасение белых скакунов / Miracle of the White Stallions (Артур Хи ...
  • Потопить "Бисмарк" / Sink the Bismarck (Льюис Гилберт, боевик, драма, военн ...
  • Лев зимой / The Lion in Winter (Энтони Харви, драма, история, 1968) [DVDRip ...
  • Бог знает, мистер Аллисон / Heaven Knows, Mr. Allison (Джон Хьюстон, боевик ...
  • Иосиф Прекрасный: Наместник фараона / Joseph (2 части из 2) (Роджер Янг, др ...
  • Первый из немногих / История истребителя Спитфайера / The First of the Few ...
  • Пассажирка / Pasazerka (Анджей Мунк, Витольд Лесевич, драма, военный, истор ...
  • Прощай, король / Farewell to the King (Джон Милиус, боевик, драма, приключе ...
  • Мост слишком далеко / A Bridge Too Far (Ричард Аттенборо, боевик, драма, во ...
  • Король Ральф / King Ralph (Дэвид С. Уорд, мелодрама, комедия, 1991) [HDTVRi ...
  • Адмирал Нахимов (Всеволод Пудовкин, драма, военный, биография, история, 194 ...
  • Суворов (Михаил Доллер, Всеволод Пудовкин, драма, военный, биография, истор ...
  • Информация
    Посетители, находящиеся в группе Гости, не могут оставлять комментарии к данной публикации.