вход на сайт

Имя пользователя :
Пароль :

Восстановление пароля Регистрация
Осенняя соната / Hostsonaten (Ингмар Бергман, драма, музыка, 1978) [DVDRip, Профессиональный (многоголосый, закадровый)]
Рейтинг:
(голосов: 1)



[img]{THEME}/images/logopost.png[/img]



Осенняя соната / Hostsonaten

Год выпуска: 1978
Страна: Швеция, Франция,Германия
Производство: Filmedis, Incorporated Television Company (ITC), Personafilm, Suede Film
Жанр: драма, музыка

Режиссёр: Ингмар Бергман
В ролях: Ингрид Бергман, Лив Ульман, Лена Нюман, Halvar Bjork, Марианне Аминофф, Arne Bang-Hansen, Гуннар Бьёрнстранд,
Эрланд Юсефсон, Georg Lokkeberg, Мими Поллак

Перевод: Профессиональный (многоголосый, закадровый)
Субтитры: Отсутствуют

Описание:
На судьбах одной семьи — известной пианистки Шарлотты Андергаст, ее мужа архитектора Юсефа, и их дочерей, Евы и Елены в фильме показывается крушение семейных уз, распад семьи.


Дополнительно:
Рейтинг MPAA: ▼
Рейтинг PG - Рекомендуется присутствие родителей



MediaInfo ▼Text
Общее
Полное имя :J:Кинокопилка.РуРАЗДАЧАОсенняя сонатаOsennyaya.Sonata.avi
Формат :AVI
Размер :700 MiB
Продолжительность :01:28:47.040
Общий поток :1 102 Kbps
Программа кодирования :VirtualDubMod 1.5.4.1 (build 2178/release)
Библиотека кодирования :VirtualDubMod build 2178/release

Видео
Идентификатор :0
Формат :MPEG-4 Visual
Профиль формата :[email protected]
Параметр BVOP формата :1
Параметр Qpel формата :No
Параметр GMC формата :0
Параметр Matrix формата :Custom
Идентификатор кодека :XVID
Продолжительность :1h 28mn 47s 40ms
Битрейт :967 Kbps
Ширина :640 pixels
Высота :400 pixels
Соотношение сторон :1.600
Частота кадров :25.000 fps
Глубина цвета :8 bits
Подвыборка цветности :4:2:0
Цветовое пространство :YUV
Тип развертки :Progressive
Бит/(Пиксели*Кадры) :0.151
Размер потока :614 MiB (88%)
Библиотека кодирования :XviD0037

Аудио #1
Идентификатор :1
Формат :MPEG Audio
Идентификатор кодека :55
Продолжительность :01:28:47.040
Вид битрейта :Constant
Битрейт :128 Kbps
Канал(ы) :2 channels
Частота :48.0 KHz
Метод сжатия :Lossy
Размер потока :81.3 MiB (12%)
Язык &
19bf1a0cccf52057d2e1b1f243b67e91aeb8b370Осенняя соната / Hostsonaten (Ингмар Бергман, драма, музыка, 1978) [DVDRip, Профессиональный (многоголосый, закадровый)] Осенняя соната / Hostsonaten (Ингмар Бергман, драма, музыка, 1978) [DVDRip, Профессиональный (многоголосый, закадровый)] " />

Аплоадер: Админ, дата: 18-08-2012, 04:34, торрент скачан: 359 раз

Понравилась раздача? Посмотрите эти:
  • Земляничная поляна / Smultronstället (Ингмар Бергман, драма, 1957) [BDRip, ...
  • Осенняя соната / Hostsonaten (Ингмар Бергман, драма, музыка, 1978) [BD-Remu ...
  • Из жизни марионеток / Aus Dem Leben Der Marionetten (Ингмар Бергман, драма, ...
  • Дождь над нашей любовью / Det regnar pе vеr kдrlek (Ингмар Бергман, драма, ...
  • Удар головой / Coup de tete (Жан-Жак Анно, драма, комедия, спорт, 1978) [DV ...
  • Лето с Моникой / Sommaren med Monika (Ингмар Бергман, драма, мелодрама, 195 ...
  • Кошка на раскаленной крыше / Cat on a Hot Tin Roof (Ричард Брукс, драма, 19 ...
  • Седьмая Печать / Det sjunde inseglet / The Seventh Seal (Ингмар Бергман, фэ ...
  • Под знаком Козерога / Under Capricorn (Альфред Хичкок, драма, мелодрама, 19 ...
  • Лето с Моникой / Sommaren med Monika (Ингмар Бергман, драма, мелодрама, 195 ...
  • Причастие / Nattvardsgдsterna (Ингмар Бергман, драма, 1962) [DVDRip, Профес ...
  • Молчание / Tystnaden (Ингмар Бергман, драма, 1963) [DVDRip, Профессиональны ...
  • Квадрофения / Quadrophenia (Фрэнк Роддэм, драма, криминал, музыка, 1979) [H ...
  • Вечер шутов / Gycklarnas afton (Ингмар Бергман, драма, 1953) [DVDRip, Профе ...
  • Конвейер / Blue Collar (Пол Шредер, драма, криминал, 1977) [DVDRip, Професс ...
  • После репетиции / Efter repetitionen (Ингмар Бергман, драма, 1984) [DVDRip, ...
  • Ритуал / Riten (Ингмар Бергман, драма, 1969) [DVDRip, Профессиональный (одн ...
  • Семейный доктор / House Calls (Ховард Зифф, драма, мелодрама, комедия, 1978 ...
  • В то же время, в следующем году / Same Time, Next Year (Роберт Маллиган, др ...
  • Девичий источник / Jungfrukallan (Ингмар Бергман, драма, криминал, 1960) [D ...
  • Калифорнийский отель / California Suite (Херберт Росс, мелодрама, комедия, ...
  • Дьявольское око / Djдvulens цga (Ингмар Бергман, фэнтези, драма, комедия, 1 ...
  • Урок любви / En lektion i karlek (Ингмар Бергман, драма, комедия, 1954) [DV ...
  • Расплата кровью / The Man Who Came Back (Глен Питре, боевик, драма, вестерн ...
  • Улыбки летней ночи / Sommarnattens leende (Ингмар Бергман, мелодрама, комед ...
  • Информация
    Посетители, находящиеся в группе Гости, не могут оставлять комментарии к данной публикации.