вход на сайт

Имя пользователя :
Пароль :

Восстановление пароля Регистрация
Госпожа Кровавый Снег 2 / Shura-yuki-hime: Urami Renga (Тошия Фудзита, триллер, драма, 1974) [DVDRip, Авторский (одноголосый, закадровый) С. Визгунов]
Рейтинг:
(голосов: 1)



[img]{THEME}/images/logopost.png[/img]



Госпожа Кровавый Снег 2 / Shura-yuki-hime: Urami Renga

Год выпуска: 1974
Страна: Япония
Производство: Toho Film (Eiga) Co. Ltd.
Жанр: триллер, драма

Режиссёр: Тошия Фудзита
В ролях: Мейко Каджи, Йошио Харада, Казуко Йошиюки, Син Кисида, Дзюдзо Итами

Перевод: Авторский (одноголосый, закадровый) С. Визгунов
Субтитры: Отсутствуют

Описание:
Приговорённая к смерти, Юки получает помилование от секретного агента правительственной полиции Кикуи. Взамен он хочет, чтобы Юки убила анархиста Рансуи и нашла секретный документ, который тот скрывает. Выполняя приказ, Юки обнаруживает, что данный документ — письмо, обличающее Кикуи. Всегда находясь на стороне правосудия, она присоединяется к Рансуи, чтобы изобличить и уничтожить агента.


Дополнительно:
MediaInfo ▼Text
Общее
Полное имя :K:РАЗДАЧАГоспожа Кровавый Снег 2Dama_Kashima_2.avi
Формат :AVI
Размер :702 MiB
Продолжительность :01:29:22.200
Общий поток :1 098 Kbps
Программа кодирования :VirtualDubMod 1.5.10.2 (build 2540/release)
Библиотека кодирования :VirtualDubMod build 2540/release

Видео
Идентификатор :0
Формат :MPEG-4 Visual
Профиль формата :Advanced [email protected]
Параметр BVOP формата :1
Параметр Qpel формата :No
Параметр GMC формата :0
Параметр Matrix формата :Custom
Идентификатор кодека :XVID
Продолжительность :1h 29mn 22s 190ms
Битрейт :897 Kbps
Ширина :720 pixels
Высота :304 pixels
Соотношение сторон :2.368
Частота кадров :23.976 fps
Глубина цвета :8 bits
Подвыборка цветности :4:2:0
Цветовое пространство :YUV
Тип развертки :Progressive
Бит/(Пиксели*Кадры) :0.171
Размер потока :573 MiB (82%)
Библиотека кодирования :XviD0037

Аудио #1
Идентификатор :1
Формат :MPEG Audio
Идентификатор кодека :55
Продолжительность :01:29:22.200
Вид битрейта :Constant
Битрейт :192 Kbps
Канал(ы) :2 channels
Частота :48.0 KHz
Метод сжатия :Lossy
Размер потока :123 MiB (17%)
Язык
efd3c674b6ee20127c5bca43a2b306aab7d2e28bГоспожа Кровавый Снег 2 / Shura-yuki-hime: Urami Renga (Тошия Фудзита, триллер, драма, 1974) [DVDRip, Авторский (одноголосый, закадровый) С. Визгунов] Госпожа Кровавый Снег 2 / Shura-yuki-hime: Urami Renga (Тошия Фудзита, триллер, драма, 1974) [DVDRip, Авторский (одноголосый, закадровый) С. Визгунов] " />

Аплоадер: Админ, дата: 31-07-2012, 17:03, торрент скачан: 359 раз

Понравилась раздача? Посмотрите эти:
  • Ад каннибалов 3 / Ultimo mondo cannibale (Руджеро Деодато, Ужасы, 1977) [DV ...
  • Карлик Нос / Zwerg Nase (Карл-Хайнц Бальс, фэнтези, 1978) [DVDRip, Любитель ...
  • Все решается в среду / Big Wednesday (Джон Милиус, драма, комедия, спорт, 1 ...
  • В постели с вампиром / To Sleep with a Vampire (Адам Фридман, Ужасы, трилле ...
  • Выбывший из игры / Odd Man Out (Кэрол Рид, фильм-нуар, триллер, драма, мело ...
  • Молчаливый партнер / The Silent Partner (Дэрил Дьюк, триллер, драма, кримин ...
  • Лукас / Lucas (Дэвид Зельцер, драма, мелодрама, комедия, 1986) [HDRip, Авто ...
  • Командир / Der Commander (Антонио Маргерити, боевик, военный, 1988) [DVDRip ...
  • Леди карате / Сестра Уличного Бойца / Onna hissatsu ken (Кадзухико Ямагути, ...
  • Выбор Софи / Sophies Choice (Алан Дж. Пакула, Драма, мелодрама, 1982) [DVDR ...
  • След кота (Уильям А. Уэллмен, драма, вестерн, 1954) [DVDRip, Любительский ( ...
  • Пуск торпеды / Torpedo Run (Джозеф Пивни, драма, военный, 1958) [DVDRip, Ав ...
  • Госпожа Кровавый Снег / Shurayukihime (Тошия Фудзита, боевик, триллер, драм ...
  • Зелиг / Zelig (Вуди Аллен, фэнтези, комедия, 1983) [DVDRip, Авторский (одно ...
  • Морские обезьяны / Umizaru (Эйитиро Хасуми, боевик, драма, 2004) [BDRip, Ав ...
  • Красавица Мемфиса / Memphis Belle (Майкл Кейтон-Джонс, боевик, драма, военн ...
  • Захват поезда Пелэм 1-2-3 / The Taking of Pelham One Two Three (Джозеф Сард ...
  • Первый из немногих / История истребителя Спитфайера / The First of the Few ...
  • Розенкранц и Гильденштерн мертвы / Rosencrantz & Guildenstern Are Dead (Том ...
  • Тюремная буря / Gam yuk fung wan (Ринго Лам, боевик, драма, криминал, 1987) ...
  • Урок любви / En lektion i karlek (Ингмар Бергман, драма, комедия, 1954) [DV ...
  • Домоуправ / The Super (Род Дэниэл, Комедия, 1991) [DVDRip, Авторский (одног ...
  • Короткое время / Short Time (Грегг Чемпион, Драма, комедия, криминал, 1990) ...
  • Миссия милосердия спасение рейса N 771 / Mercy Mission: The Rescue of Fligh ...
  • Медведи и я / The Bears and I (Бернард МакЭвети, драма, семейный, 1974) [DV ...
  • Информация
    Посетители, находящиеся в группе Гости, не могут оставлять комментарии к данной публикации.