вход на сайт

Имя пользователя :
Пароль :

Восстановление пароля Регистрация
Ругантино / Rugantino (Паскуале Феста Кампаниле, комедия, 1973) [DVDRip, Профессиональный (многоголосый, закадровый)]
Рейтинг:
(голосов: 1)



[img]{THEME}/images/logopost.png[/img]



Ругантино / Rugantino

Год выпуска: 1973
Страна: Италия
Производство: Clan Film, Filmes Cinematografica
Жанр: комедия

Режиссёр: Паскуале Феста Кампаниле
В ролях: Адриано Челентано, Клаудия Мори, Пиппо Франко, Риккардо Гарроне, Сандро Мерли, Ренцо Пальмер, Серджо Тофано, Тони Уччи, Ренато Бальдини, Эрнесто Колли, Патриция Гори

Перевод: Профессиональный (многоголосый, закадровый)
Субтитры: Отсутствуют

Описание:
Бабник и задира Ругантино влюбился в замужнюю красавицу Розетту. Ее ревнивый муж сломал Ругантино два пальца. А потом супруг Розетты в порыве ревности зарезал аристократа, и вынужден был скрываться. А его место в постели Розетты оказалось свободным…


Дополнительно:
MediaInfo ▼Text
Общее
Полное имя :K:РАЗДАЧАРугантиноugantinougantino.avi
Формат :AVI
Размер :1.21 GiB
Продолжительность :01:45:06.360
Общий поток :1 647 Kbps
Библиотека кодирования :VirtualDub build 14303/release

Видео
Идентификатор :0
Формат :MPEG-4 Visual
Параметр BVOP формата :1
Параметр Qpel формата :No
Параметр GMC формата :0
Параметр Matrix формата :Default (H.263)
Идентификатор кодека :DX50
Продолжительность :1h 45mn 6s 360ms
Битрейт :1 574 Kbps
Ширина :640 pixels
Высота :320 pixels
Соотношение сторон :2.000
Частота кадров :25.000 fps
Глубина цвета :8 bits
Цветовое пространство :YUV
Тип развертки :Progressive
Бит/(Пиксели*Кадры) :0.307
Размер потока :1.16 GiB (96%)
Библиотека кодирования :DivX503b1338p

Аудио #1
Идентификатор :1
Формат :MPEG Audio
Идентификатор кодека :55
Продолжительность :01:45:06.024
Вид битрейта :Constant
Битрейт :64.0 Kbps
Канал(ы) :1 channel
Частота :48.0 KHz
Метод сжатия :Lossy
Размер потока :48.1 MiB (4%)Тех. данные:
Качество:DVDRip
Продолжительность:01:45:00 час

Формат: AVI
Видео кодек: DivX
Аудио кодек: MPA1L3
Видео: 640 x 320 (2.000), 25.000 fps, 1 574 Kbps, 0.307 bit/pixel
Аудио : 48.0 KHz, , 1 channel (), 64.0 Kbps



d9c026593757dbd665fc9f9066a8b05e7b6e882fРугантино / Rugantino (Паскуале Феста Кампаниле, комедия, 1973) [DVDRip, Профессиональный (многоголосый, закадровый)] Ругантино / Rugantino (Паскуале Феста Кампаниле, комедия, 1973) [DVDRip, Профессиональный (многоголосый, закадровый)] " />

Аплоадер: Админ, дата: 6-07-2012, 22:47, торрент скачан: 359 раз

Понравилась раздача? Посмотрите эти:
  • Привидения по-итальянски / Questi fantasmi (Ренато Кастеллани, фэнтези, ком ...
  • Идиот в Париже / Un idiot a Paris (Серж Корбер, комедия, 1973) [DVDRip, Про ...
  • Молчание - золото / Le silence est dor (Рене Клер, мелодрама, комедия, 1947 ...
  • Спасите тигра / Save the Tiger (Джон Г. Эвилдсен, драма, 1973) [DVDRip, Про ...
  • Бинго Бонго / Bingo Bongo (Паскуале Феста Кампаниле, Комедия, семейный, 198 ...
  • Девушка из Триеста / La ragazza di Trieste (Паскуале Феста Кампаниле, драма ...
  • Вальсирующие / Les valseuses (Бертран Блие, драма, комедия, криминал, 1966) ...
  • Не уходи / Non ti muovere (Серджо Кастеллитто, драма, мелодрама, 2004) [DVD ...
  • Афера / The Sting (Джордж Рой Хилл, комедия, криминал, 1973) [DVDRip, Профе ...
  • Укрощение строптивой / The Taming of the Shrew (Франко Дзеффирелли, комедия ...
  • Синдбад и калиф Багдада / Simbad e il califfo di Bagdad (Пьетро Франчиши, п ...
  • Скорпион / Scorpio (Майкл Уиннер, драма, триллер, детектив, 1973) [DVDRip, ...
  • Мы поедем в Дювиль / Nous irons a Deauville (Френсис Риго, комедия, 1962) [ ...
  • День добрый, улыбка! / Bonjour sourire! (Клод Соте, комедия, 1956) [DVDRip, ...
  • Мой дядюшка / Mon oncle (Жак Тати, комедия, 1958) [DVDRip, Профессиональный ...
  • Повышение / The Promotion (Стив Конрад, Комедия, 2008) [DVDRip, Профессиона ...
  • Орел или Решка / Pari e dispari (Серджио Корбуччи, комедия, криминал, 1978) ...
  • Уик-энд / Week End (Жан-Люк Годар, драма, комедия, 1967) [DVDRip, Профессио ...
  • Школа воров 2 / Scuola di ladri - parte seconda (Нери Паренти, Комедия, 198 ...
  • Бессмертная тетушка / Nesmrtelna teta (Зденек Зеленка, комедия, 1993) [DVDR ...
  • Информация
    Посетители, находящиеся в группе Гости, не могут оставлять комментарии к данной публикации.