вход на сайт

Имя пользователя :
Пароль :

Восстановление пароля Регистрация
Огни рампы / Limelight (Чарльз Чаплин, драма, мелодрама, комедия, музыка, 1952) [DVDRip, Профессиональный (полное дублирование)+оригинал]
Рейтинг:
(голосов: 1)



[img]{THEME}/images/logopost.png[/img]





Огни рампы / Limelight

Год выпуска: 1952
Страна: США
Производство: Celebrated Productions
Жанр: драма, мелодрама, комедия, музыка

Режиссёр: Чарльз Чаплин
В ролях: Чарльз Чаплин, Клер Блум, Найджел Брюс, Бастер Китон, Сидни Чаплин, Норман Ллойд, Андре Эглевский, Мелисса Хейден, Марджори Беннетт, Уилер Драйден

Перевод: Профессиональный (полное дублирование)+оригинал
Субтитры: Отсутствуют

Описание:
Стареющий клоун Калверо спасает от самоубийства соседку — девушку-танцовщицу, вынужденную из-за болезни покинуть балетную труппу. Так начинается эта дружба-любовь, которая, по мнению Калверо, не может иметь продолжение — слишком велика разница в возрасте…


Дополнительно:
Рейтинг MPAA: ▼
Рейтинг G - Нет возрастных ограничений



MediaInfo ▼Text
Общее
Полное имя :K:РАЗДАЧАОгни рампыlimelight.avi
Формат :AVI
Размер :1.92 GiB
Продолжительность :02:10:42.360
Общий поток :2 106 Kbps
Программа кодирования :VirtualDubModRus 1.5.10.2 (build 2540/release)
Библиотека кодирования :VirtualDubMod build 2540/release

Видео
Идентификатор :0
Формат :MPEG-4 Visual
Профиль формата :Advanced [email protected]
Параметр BVOP формата :2
Параметр Qpel формата :No
Параметр GMC формата :0
Параметр Matrix формата :Default (MPEG)
Идентификатор кодека :XVID
Продолжительность :2h 10mn 42s 360ms
Битрейт :1 835 Kbps
Ширина :712 pixels
Высота :504 pixels
Соотношение сторон :1.413
Частота кадров :25.000 fps
Глубина цвета :8 bits
Подвыборка цветности :4:2:0
Цветовое пространство :YUV
Тип развертки :Progressive
Бит/(Пиксели*Кадры) :0.205
Размер потока :1.68 GiB (87%)
Библиотека кодирования :XviD0050

Аудио #1
Идентификатор :1
Формат :MPEG Audio
Идентификатор кодека :55
Продолжительность :02:10:42.360
Вид битрейта :Constant
Битрейт :128 Kbps
Канал(ы) :2 channels
Частота :48.0 KHz
Метод сжатия :Lossy
Размер потока :120 MiB (6%)

Аудио #2
Идентификатор &
596be56c23e5ab2b9ebcff7b04399e643f34ba56Огни рампы / Limelight (Чарльз Чаплин, драма, мелодрама, комедия, музыка, 1952) [DVDRip, Профессиональный (полное дублирование)+оригинал] Огни рампы / Limelight (Чарльз Чаплин, драма, мелодрама, комедия, музыка, 1952) [DVDRip, Профессиональный (полное дублирование)+оригинал] " />

Аплоадер: Админ, дата: 5-07-2012, 00:39, торрент скачан: 359 раз

Понравилась раздача? Посмотрите эти:
  • Тутси / Tootsie (Сидни Поллак, Драма, мелодрама, комедия, 1982) [DVDRip, Пр ...
  • Однажды на матрасе / Once Upon a Mattress (Кэтлин Маршалл, мюзикл, мелодрам ...
  • Украденный поезд (Владимир Янчев, драма, 1971) [DVDRip, Профессиональный (п ...
  • Иван да Марья (Борис Рыцарев, фэнтези, мелодрама, комедия, семейный, музыка ...
  • Чарли Чаплин - Искатель приключений / The adventurer (Чарльз Чаплин, Комеди ...
  • Великий диктатор / The Great Dictator (Чарльз Чаплин, драма, комедия, военн ...
  • Мы не женаты / Were Not Married! (Эдмунд Гулдинг, мелодрама, комедия, 1952) ...
  • Вождь краснокожих и другие / O.Henrys Full House (Генри Хэтэуэй, Ховард Хоу ...
  • Цирк / The Circus (Чарльз Чаплин, драма, мелодрама, комедия, семейный, 1928 ...
  • Огни рампы / Limelight (Чарльз Чаплин, комедия, мелодрама, драма, музыка, 1 ...
  • Я, бабушка, Илико и Илларион (Тенгиз Абуладзе, мелодрама, комедия, 1962) [D ...
  • Сердце и души / Heart and Souls (Рон Андервуд, фэнтези, драма, мелодрама, к ...
  • Огни большого города / City Lights (Чарльз Чаплин / Charles Chaplin , Немое ...
  • Беовульф / Beowulf (Грэм Бейкер, ужасы, фантастика, боевик, 1999) [DVDRip, ...
  • Как украсть миллион / How to steal a million (Уильям Уайлер, комедия, крими ...
  • Смешная девчонка / Funny Girl (Уильям Уайлер , мюзикл, драма, мелодрама, ко ...
  • Будучи там / Being There (Хэл Эшби, драма, комедия, 1979) [DVDRip, Професси ...
  • Афера / The Sting (Джордж Рой Хилл, комедия, криминал, 1973) [HDRip, Профес ...
  • Лизелотта из Пфальца / Liselotte von der Pfalz (Курт Хофманн, мелодрама, ко ...
  • Трюкач / The Stunt Man (2 части из 2-х) (Ричард Раш, боевик, триллер, комед ...
  • Господин 420 / Shree 420 (Радж Капур, мюзикл, драма, мелодрама, 1955) [DVDR ...
  • Мальчишки с улицы Пал / A pal-utcai fiuk (Золтан Фабри, драма, 1968) [DVDRi ...
  • Семейный доктор / House Calls (Ховард Зифф, драма, мелодрама, комедия, 1978 ...
  • Хеллоу, Долли! / Hello, Dolly! (Джин Келли, мюзикл, мелодрама, комедия, сем ...
  • Шансы есть / Chances Are (Эмиль Ардолино, фэнтези, мелодрама, комедия, 1989 ...
  • Информация
    Посетители, находящиеся в группе Гости, не могут оставлять комментарии к данной публикации.