вход на сайт

Имя пользователя :
Пароль :

Восстановление пароля Регистрация
Любовь после полудня / Love in the afternoon (Билли Уайлдер, комедия, драма, мелодрама, 1957) [DVDRip, Профессиональный (двухголосый)]
Рейтинг:
(голосов: 1)



[img]{THEME}/images/logopost.png[/img]



Любовь после полудня / Love in the afternoon

Год выпуска: 1957
Страна: США
Производство: Allied Artists Pictures Corporation
Жанр: комедия, драма, мелодрама

Режиссёр: Билли Уайлдер
В ролях: Гэри Купер, Одри Хепберн, Морис Шевалье, Джон МакГайвер, Ван Дауде, Лизе Бурден, Ольга Валери

Перевод: Профессиональный (двухголосый)
Субтитры: Отсутствуют

Описание:
Клод Чавесс — частный детектив, специализирующийся на слежке за неверными женами и мужьями. Любимый объект его наблюдений, приносящий ему львиную долю доходов — американский миллионер и охотник за женщинами Флэннаган. На этот раз очередной обманутый муж, получив доказательства измены, решил застрелить обоих любовников во время их следующей встречи. Узнавшая об этом Ариана, дочь Клода, движимая состраданием, решает спасти Флэннагана и заодно познакомиться с ним. Это была самая большая ошибка в её жизни… Девушкам нельзя знакомиться с донжуанами…


Дополнительно:
MediaInfo ▼Text
Общее
Полное имя :J:Кинокопилка.РуРАЗДАЧАЛюбовь после полудняlove_in_the_afternoon.avi
Формат :AVI
Размер :771 MiB
Продолжительность :02:09:59.166
Общий поток :829 Kbps

Видео
Идентификатор :0
Формат :MPEG-4 Visual
Профиль формата :Advanced [email protected]
Параметр BVOP формата :2
Параметр Qpel формата :No
Параметр GMC формата :0
Параметр Matrix формата :Custom
Идентификатор кодека :XVID
Продолжительность :2h 9mn 59s 166ms
Битрейт :705 Kbps
Ширина :624 pixels
Высота :352 pixels
Соотношение сторон :1.773
Частота кадров :23.976 fps
Глубина цвета :8 bits
Подвыборка цветности :4:2:0
Цветовое пространство :YUV
Тип развертки :Progressive
Бит/(Пиксели*Кадры) :0.134
Размер потока :655 MiB (85%)
Библиотека кодирования :XviD0050

Аудио #1
Идентификатор :1
Формат :MPEG Audio
Идентификатор кодека :55
Продолжительность :02:09:59.055
Вид битрейта :Constant
Битрейт :112 Kbps
Канал(ы) :2 channels
Частота :44.1 KHz
Метод сжатия :Lossy
Размер потока :104 MiB (14%)Тех. данные:
Качество:DVDRip
П
5ce433210ad796f96e271813e09b58844885399eЛюбовь после полудня / Love in the afternoon (Билли Уайлдер, комедия, драма, мелодрама, 1957) [DVDRip, Профессиональный (двухголосый)] Любовь после полудня / Love in the afternoon (Билли Уайлдер, комедия, драма, мелодрама, 1957) [DVDRip, Профессиональный (двухголосый)] " />

Аплоадер: Админ, дата: 3-07-2012, 06:01, торрент скачан: 359 раз

Понравилась раздача? Посмотрите эти:
  • Поездка в Америку / Coming to America (Джон Лэндис, драма, мелодрама, комед ...
  • Частная жизнь Шерлока Холмса / The Private Life of Sherlock Holmes (Билли У ...
  • Верь мне / Chura Liya Hai Tumne (Сангит Сиван, боевик, триллер, драма, мело ...
  • Однажды на матрасе / Once Upon a Mattress (Кэтлин Маршалл, мюзикл, мелодрам ...
  • Летят журавли (Михаил Калатозов, драма, мелодрама, военный, 1957) [DVDRip, ...
  • Свидетель обвинения / Witness for the Prosecution (Билли Уайлдер, драма, де ...
  • Сапоги (Владимир Немоляев, короткометражка, драма, комедия, 1957) [DVDRip, ...
  • Сабрина / Sabrina [1954, Комедия, Мелодрама, Драма, DVDRip]
  • Сабрина / Sabrina (Билли Уайлдер, Комедия, драма, мелодрама, 1954) [DVDRip, ...
  • Азарт удачи / The Fortune Cookie (Билли Уайлдер, мелодрама, комедия, 1966) ...
  • Квартира / The Apartment (Билли Уайлдер, комедия, мелодрама, драма, 1960) [ ...
  • Лагерь для военнопленных № 17 / Stalag 17 (Билли Уайлдер, комедия, драма, в ...
  • Если бы у меня был миллион / If I Had a Million (Джеймс Круз, Х. Брюс Хамбе ...
  • Свидетель обвинения / Witness for the Prosecution (Билли Уайлдер, триллер, ...
  • Двое на дороге / Two For the Road (Стенли Донен, драма, мелодрама, комедия, ...
  • Бог знает, мистер Аллисон / Heaven Knows, Mr. Allison (Джон Хьюстон, боевик ...
  • Аванти! / Avanti! (Билли Уайлдер, комедия, мелодрама, 1972) [DVDRip, Профес ...
  • Потерянный уик-энд / The Lost weekend (Билли Уайлдер , драма, фильм-нуар, 1 ...
  • Убей! / Kiru (Кихачи Окамото, боевик, драма, комедия, 1968) [DVDRip, Профес ...
  • К Черному морю (Андрей Тутышкин, мелодрама, комедия, 1957) [DVDRip, Не треб ...
  • Информация
    Посетители, находящиеся в группе Гости, не могут оставлять комментарии к данной публикации.