вход на сайт

Имя пользователя :
Пароль :

Восстановление пароля Регистрация
Лиловая равнина / The Purple Plain (Роберт Пэрриш, боевик, драма, приключения, военный, 1954) [DVDRip, Профессиональный (одноголосый)+оригинал]
Рейтинг:
(голосов: 1)



[img]{THEME}/images/logopost.png[/img]



Лиловая равнина / The Purple Plain

Год выпуска: 1954
Страна: Великобритания
Производство: Two Cities Films Ltd.
Жанр: боевик, драма, приключения, военный

Режиссёр: Роберт Пэрриш
В ролях: Грегори Пек, Вин Мин Тан, Бернард Ли, Морис Денэм, Бренда Де Бэнзи, Линдон Брук

Перевод: Профессиональный (одноголосый)
Субтитры: Отсутствуют

Описание:
Пилот, переживший гибель любимой, долгое время ищет смерти в бою, подвергая опасности своих коллег. В надежде помочь ему обрести новый смысл жизни, доктор знакомит его с бирманской девушкой.


Дополнительно:
MediaInfo ▼Text
Общее
Полное имя :K:РАЗДАЧАЛиловая равнинаlilovaja_ravninalilovaja_ravnina.avi
Формат :AVI
Размер :1.82 GiB
Продолжительность :01:37:27.280
Общий поток :2 676 Kbps
Программа кодирования :VirtualDubMod 1.5.10.2 (build 2542/release)
Библиотека кодирования :VirtualDubMod build 2542/release

Видео
Идентификатор :0
Формат :MPEG-4 Visual
Профиль формата :Advanced [email protected]
Параметр BVOP формата :2
Параметр Qpel формата :No
Параметр GMC формата :0
Параметр Matrix формата :Default (MPEG)
Идентификатор кодека :XVID
Продолжительность :1h 37mn 27s 280ms
Битрейт :2 245 Kbps
Ширина :720 pixels
Высота :528 pixels
Соотношение сторон :1.364
Частота кадров :25.000 fps
Глубина цвета :8 bits
Подвыборка цветности :4:2:0
Цветовое пространство :YUV
Тип развертки :Progressive
Бит/(Пиксели*Кадры) :0.236
Размер потока :1.53 GiB (84%)
Библиотека кодирования :XviD0046

Аудио #1
Идентификатор :1
Формат :MPEG Audio
Идентификатор кодека :55
Продолжительность :01:37:26.568
Вид битрейта :Constant
Битрейт :192 Kbps
Канал(ы) :2 channels
Частота :48.0 KHz
Метод сжатия :Lossy
Размер потока :134 MiB (7%)

Аудио #2
Идентификатор :2
Формат :AC-3
Формат/Информация :Audio Coding 3
db9abc60f425bfc9b99d22b13756147869ad96c7Лиловая равнина / The Purple Plain (Роберт Пэрриш, боевик, драма, приключения, военный, 1954) [DVDRip, Профессиональный (одноголосый)+оригинал] Лиловая равнина / The Purple Plain (Роберт Пэрриш, боевик, драма, приключения, военный, 1954) [DVDRip, Профессиональный (одноголосый)+оригинал] " />

Аплоадер: Админ, дата: 3-07-2012, 05:47, торрент скачан: 359 раз

Понравилась раздача? Посмотрите эти:
  • Пленники болот / Lure of the Wilderness (Жан Негулеско, драма, мелодрама, п ...
  • Таинственная находка (Борис Бунеев, детский, приключения, 1954) [DVDRip, Не ...
  • Оптимистическая трагедия (Самсон Самсонов, драма, военный, история, 1963) [ ...
  • Орел Шарпа / Sharpes Eagle (Том Клегг, боевик, приключения, военный, истори ...
  • Огненный ястреб / Firehawk (Сирио Сантьяго, боевик, приключения, военный, 1 ...
  • Комиссар (Александр Аскольдов, драма, военный, 1967) [DVDRip, Не требуется] ...
  • Хозяин острова ОКиф / His Majesty OKeefe (Байрон Хэскин, боевик, драма, мел ...
  • Песчаные крысы / The Desert Rats (Роберт Уайз, боевик, драма, приключения, ...
  • След кота (Уильям А. Уэллмен, драма, вестерн, 1954) [DVDRip, Любительский ( ...
  • Эль Сид / El Cid (Энтони Манн, боевик, драма, мелодрама, военный, биография ...
  • Чудесное спасение белых скакунов / Miracle of the White Stallions (Артур Хи ...
  • Последняя пуля / The Last Bullet (Майкл Паттинсон, боевик, драма, военный, ...
  • Пуск торпеды / Torpedo Run (Джозеф Пивни, драма, военный, 1958) [DVDRip, Ав ...
  • Потопить "Бисмарк" / Sink the Bismarck (Льюис Гилберт, боевик, драма, военн ...
  • Дуэлянты / The Duellists (Ридли Скотт, боевик, драма, приключения, военный, ...
  • Ад для героев / Hell Is for Heroes (Дон Сигел, боевик, драма, военный, 1962 ...
  • В порту / On the Waterfront (Элиа Казан, драма, криминал, 1954) [DVDRip, Пр ...
  • Красавица Мемфиса / Memphis Belle (Майкл Кейтон-Джонс, боевик, драма, военн ...
  • Бог знает, мистер Аллисон / Heaven Knows, Mr. Allison (Джон Хьюстон, боевик ...
  • Император севера / Emperor of the North Pole (Роберт Олдрич, боевик, трилле ...
  • Урок любви / En lektion i karlek (Ингмар Бергман, драма, комедия, 1954) [DV ...
  • Робинзон Крузо / Robinson Crusoe (Луис Бунюэль, драма, приключения, 1954) [ ...
  • Римлянка / La romana (Луиджи Дзампа, драма, 1954) [DVDRip, Любительский (од ...
  • Уик-энд / Week End (Жан-Люк Годар, драма, комедия, 1967) [DVDRip, Профессио ...
  • Медведи и я / The Bears and I (Бернард МакЭвети, драма, семейный, 1974) [DV ...
  • Информация
    Посетители, находящиеся в группе Гости, не могут оставлять комментарии к данной публикации.