вход на сайт

Имя пользователя :
Пароль :

Восстановление пароля Регистрация
Большой начальник (Вождь краснокожих) / Le grand chef (Анри Вернёй, комедия, 1959) [SATRip, Профессиональный (многоголосый, закадровый)]
Рейтинг:
(голосов: 1)



[img]{THEME}/images/logopost.png[/img]



Большой начальник (Вождь краснокожих) / Le grand chef

Год выпуска: 1959
Страна: Франция, Италия
Производство: Franco London Films, Les Films Gibй, Tempo Film
Жанр: комедия

Режиссёр: Анри Вернёй
В ролях: Фернандель, Джино Черви, Papouf
, Флоранс Бло, Жорж Шамара, Ивонн Клеш, Доминик Даврэ, Jean-Jacques Delbo, Элена Мансон, Альбер Мишель

Перевод: Профессиональный (многоголосый, закадровый)
Субтитры: Отсутствуют

Описание:
Антуан и Паоло мойщики машин, решают разбогатеть и купить собственную бензоколонку. Друзья похищают сынишку миллиардера, который в результате устраивает им «веселую» жизнь. При этом папаша-богатей отнюдь не спешит забрать у них свое чадо…


Дополнительно:
MediaInfo ▼Text
Общее
Полное имя :K:РАЗДАЧАБольшой начальникVozhdy.krasnokozhih.avi
Формат :AVI
Размер :1.37 GiB
Продолжительность :01:28:52.960
Общий поток :2 210 Kbps
Программа кодирования :VirtualDubModRus 1.5.10.2 (build 2542/release)
Библиотека кодирования :VirtualDubMod build 2542/release

Видео
Идентификатор :0
Формат :MPEG-4 Visual
Профиль формата :Advanced [email protected]
Параметр BVOP формата :2
Параметр Qpel формата :No
Параметр GMC формата :0
Параметр Matrix формата :Default (H.263)
Идентификатор кодека :XVID
Продолжительность :1h 28mn 52s 960ms
Битрейт :2 072 Kbps
Ширина :640 pixels
Высота :384 pixels
Соотношение сторон :1.667
Частота кадров :25.000 fps
Глубина цвета :8 bits
Подвыборка цветности :4:2:0
Цветовое пространство :YUV
Тип развертки :Progressive
Бит/(Пиксели*Кадры) :0.337
Размер потока :1.29 GiB (94%)
Библиотека кодирования :XviD0047

Аудио #1
Идентификатор :1
Формат :MPEG Audio
Идентификатор кодека :55
Продолжительность :01:28:52.960
Вид битрейта :Constant
Битрейт :128 Kbps
Канал(ы) :2 channels
Частота :44.1 KHz
Метод сжатия :Lossy
Размер потока :81.4 MiB (6%)Тех. данные:
Качество:SATRip
Продолжительность:01:28:50 час
6d657ddb053d37cef1b6e7f881458d45b3f4df10Большой начальник (Вождь краснокожих) / Le grand chef (Анри Вернёй, комедия, 1959) [SATRip, Профессиональный (многоголосый, закадровый)] Большой начальник (Вождь краснокожих) / Le grand chef (Анри Вернёй, комедия, 1959) [SATRip, Профессиональный (многоголосый, закадровый)] " />

Аплоадер: Админ, дата: 25-06-2012, 00:00, торрент скачан: 359 раз

Понравилась раздача? Посмотрите эти:
  • Привидения по-итальянски / Questi fantasmi (Ренато Кастеллани, фэнтези, ком ...
  • Несколько слишком спокойных господ / Quelques Messieurs Trop Tranquilles (Ж ...
  • Убийца живет в доме... №21 / Lassassin habite... au 21 (Анри-Жорж Клузо, тр ...
  • Сезар и Розали / Cesar et Rosalie (Клод Соте, драма, комедия, 1972) [BDRip, ...
  • Дама с собачкой (Иосиф Хейфиц, драма, мелодрама, 1959) [DVDRip, Не требуетс ...
  • Сицилийский клан / Le clan des Siciliens (Анри Вернёй, драма, криминал, 196 ...
  • Командир / Il comandante (Паоло Хеуш, комедия, 1963) [DVDRip, Профессиональ ...
  • Мадемуазель Нитуш / Mamzelle Nitouche (Ив Аллегре, комедия, 1954) [DVDRip, ...
  • Пройдоха / I Tartassati (Стено, комедия, 1959) [DVDRip, Профессиональный (м ...
  • Сто тысяч долларов под солнцем / Cent mille dollars au soleil (Анри Верней, ...
  • Сладкая жизнь / La dolce vita (Федерико Феллини, драма, комедия, 1959) [DVD ...
  • Карманник / Pickpocket (Робер Брессон, триллер, драма, криминал, 1959) [DVD ...
  • Мой американский дядюшка / Mon oncle dAmerique (Ален Рене, драма, мелодрама ...
  • Вождь краснокожих и другие / O.Henrys Full House (Генри Хэтэуэй, Ховард Хоу ...
  • Удар головой / Coup de tete (Жан-Жак Анно, драма, комедия, спорт, 1978) [DV ...
  • Безумный Пьеро / Pierrot le fou (Жан-Люк Годар, мюзикл, драма, мелодрама, к ...
  • Деловые люди (полная реставрация) (Леонид Гайдай, комедия, драма, 1962) [DV ...
  • Мы поедем в Дювиль / Nous irons a Deauville (Френсис Риго, комедия, 1962) [ ...
  • Обезьяна зимой / Un singe en hiver (Анри Вернёй, драма, комедия, 1962) [DVD ...
  • Будь красивой и молчи / Sois belle et tais-toi (Марк Аллегре, комедия, 1958 ...
  • Мой дядюшка / Mon oncle (Жак Тати, комедия, 1958) [DVDRip, Профессиональный ...
  • Повышение / The Promotion (Стив Конрад, Комедия, 2008) [DVDRip, Профессиона ...
  • Уик-энд / Week End (Жан-Люк Годар, драма, комедия, 1967) [DVDRip, Профессио ...
  • Улица Прери / Rue des Prairies (Дени де Ла Пательер, драма, 1959) [DVDRip, ...
  • Медведи и я / The Bears and I (Бернард МакЭвети, драма, семейный, 1974) [DV ...
  • Информация
    Посетители, находящиеся в группе Гости, не могут оставлять комментарии к данной публикации.