вход на сайт

Имя пользователя :
Пароль :

Восстановление пароля Регистрация
Переполох в облаках / Poplach v oblacich (Индрих Полак, семейный, 1980) [DVDRip, Профессиональный (двухголосый, закадровый)]
Рейтинг:
(голосов: 1)



[img]{THEME}/images/logopost.png[/img]



Переполох в облаках / Poplach v oblacich

Год выпуска: 1980
Страна: Чехия, Словакия,Германия
Производство: Filmove Studio Barrandov, Saarlandischer Rundfunk (SR), Westdeutscher Rundfunk (WDR)
Жанр: семейный

Режиссёр: Индрих Полак
В ролях: Отто Шиманек, Властимил Бродский, Йозеф Блага, Яна Брейхова, Отто Будин, Петр Чепек, Мартина Червена, Stanislava Coufalova, Джозеф Дворак, Zdena Hadrbolcova

Перевод: Профессиональный (двухголосый, закадровый)
Субтитры: Отсутствуют

Описание:
О добром волшебнике пане Тау, который творит чудеса с помощью волшебного котелка, о маленьком слонёнке проказнике, который сбежал из зоопарка. И тот и другой устроили переполох на земле и в облаках.


Дополнительно:
MediaInfo ▼Text
Общее
Полное имя :J:Кинокопилка.РуРАЗДАЧАПереполох в облакахperepoloh_v_oblakah.avi
Формат :AVI
Размер :688 MiB
Продолжительность :01:10:15.080
Общий поток :1 369 Kbps
Программа кодирования :VirtualDubModRus 1.5.10.2 (build 2540/release)
Библиотека кодирования :VirtualDubMod build 2540/release

Видео
Идентификатор :0
Формат :MPEG-4 Visual
Профиль формата :[email protected]
Параметр BVOP формата :2
Параметр Qpel формата :No
Параметр GMC формата :0
Параметр Matrix формата :Default (H.263)
Идентификатор кодека :XVID
Продолжительность :1h 10mn 15s 80ms
Битрейт :1 232 Kbps
Ширина :576 pixels
Высота :432 pixels
Соотношение сторон :1.333
Частота кадров :25.000 fps
Глубина цвета :8 bits
Подвыборка цветности :4:2:0
Цветовое пространство :YUV
Тип развертки :Progressive
Бит/(Пиксели*Кадры) :0.198
Размер потока :619 MiB (90%)
Библиотека кодирования :XviD0038

Аудио #1
Идентификатор :1
Формат :MPEG Audio
Идентификатор кодека :55
Продолжительность :01:10:15.080
Вид битрейта :Constant
Битрейт :128 Kbps
Канал(ы) :2 channels
Частота :44.1 KHz
Метод сжатия :Lossy
Размер потока :64.3 MiB (9%)Тех. данные:
Качество:DVDRip
e0fb2332b2125086481006b279c923bee9b73a48Переполох в облаках / Poplach v oblacich (Индрих Полак, семейный, 1980) [DVDRip, Профессиональный (двухголосый, закадровый)] Переполох в облаках / Poplach v oblacich (Индрих Полак, семейный, 1980) [DVDRip, Профессиональный (двухголосый, закадровый)] " />

Аплоадер: Админ, дата: 13-06-2012, 04:05, торрент скачан: 359 раз

Понравилась раздача? Посмотрите эти:
  • Индеец-беглец / The Indian Runner (Шон Пенн, драма, 1991) [DVDRip, Професси ...
  • Поездка в Америку / Coming to America (Джон Лэндис, драма, мелодрама, комед ...
  • Хатчипух / Hatschipuh (Ульрих Кениг, мультфильм, семейный, 1987) [DVDRip, П ...
  • Однажды на матрасе / Once Upon a Mattress (Кэтлин Маршалл, мюзикл, мелодрам ...
  • Всадник на золотом коне (Василий Журавлев, фэнтези, 1980) [DVDRip, Не требу ...
  • Американский пирог: Переполох в общаге / American Pie Presents Beta House ...
  • Спасите тигра / Save the Tiger (Джон Г. Эвилдсен, драма, 1973) [DVDRip, Про ...
  • Деревенька моя центральная / Vesnicko ma strediskova (Иржи Менцель, Комедия ...
  • Процесс Жанны Д Арк / Proces de Jeanne dArc (Робер Брессон, драма, военный, ...
  • Шарло в Испании / Les Charlots font lEspagne (Жан Жиро, комедия, 1972) [DVD ...
  • Черная гора (Александр Згуриди, драма, семейный, 1972) [DVDRip, Профессиона ...
  • Румбурак / Rumburak (Вацлав Ворличек, семейный, 1985) [DVDRip, Любительский ...
  • Чудесное спасение белых скакунов / Miracle of the White Stallions (Артур Хи ...
  • Таинственный остров / Остров приключений / Mysterious Island (Сай Эндфилд, ...
  • Тристана / Tristana (Луис Бунюэль, Драма, 1970) [DVDRip, Профессиональный ( ...
  • Магазин на площади / Obchod na korze (Ян Кадар, Эльмар Клос, драма, военный ...
  • Неверные / Le infedeli (Марио Моничелли, Стено, драма, комедия, 1953) [DVDR ...
  • Кафе–экспресс / Cafe Express (Нанни Лой, комедия, 1980) [DVDRip, Профессион ...
  • Бог знает, мистер Аллисон / Heaven Knows, Mr. Allison (Джон Хьюстон, боевик ...
  • Великий Уолдо Пеппер / The Great Waldo Pepper (Джордж Рой Хилл, драма, прик ...
  • Принцесса Клевская / La princesse de Cleves (Жан Деланнуа, драма, мелодрама ...
  • Дьявольское око / Djдvulens цga (Ингмар Бергман, фэнтези, драма, комедия, 1 ...
  • На хуторе у леса / Na samote u lesa (Иржи Менцель, драма, комедия, семейный ...
  • Убей! / Kiru (Кихачи Окамото, боевик, драма, комедия, 1968) [DVDRip, Профес ...
  • Возвращение черного скакуна / The Black Stallion Returns (Роберт Далва, при ...
  • Информация
    Посетители, находящиеся в группе Гости, не могут оставлять комментарии к данной публикации.