вход на сайт

Имя пользователя :
Пароль :

Восстановление пароля Регистрация
Мальчишки с улицы Пал / A pal-utcai fiuk (Золтан Фабри, драма, 1968) [DVDRip, Профессиональный (полное дублирование)+оригинал]
Рейтинг:
(голосов: 1)



[img]{THEME}/images/logopost.png[/img]



Мальчишки с улицы Пал / A pal-utcai fiuk

Год выпуска: 1968
Страна: США, Венгрия
Производство: Groskopf, MAFILM Studio 1
Жанр: драма

Режиссёр: Золтан Фабри
В ролях: Мари Тёрёчик, Шандор Печи, Ласло Козак, Энтони Кемп, Уильям Берли, Джон Маулдер-Браун, Роберт Эффордб Марк Коллеано Гари О’Брайэн

Перевод: Профессиональный (полное дублирование)+оригинал
Субтитры: Отсутствуют

Описание:
«Красные рубашки» хотят отвоевать игровую площадку у «Мальчишек с улицы Пал». Под предводительством генерала Бока и при помощи песочных бомб и смекалки, мальчишки защищают свой пустырь от врагов. Борьба двух групп заканчивается плачевно…


Дополнительно:
Рейтинг MPAA: ▼
Рейтинг G - Нет возрастных ограничений



MediaInfo ▼Text
Общее
Полное имя :J:РАЗДАЧАМальчишки с улицы Палmaljchishki_s_ulici_palmaljchishki_s_ulici_pal.avi
Формат :AVI
Размер :1.46 GiB
Продолжительность :01:43:07.880
Общий поток :2 034 Kbps
Программа кодирования :VirtualDubMod 1.5.10.2 (build 2540/release)
Библиотека кодирования :VirtualDubMod build 2540/release

Видео
Идентификатор :0
Формат :MPEG-4 Visual
Профиль формата :[email protected]
Параметр BVOP формата :No
Параметр Qpel формата :No
Параметр GMC формата :0
Параметр Matrix формата :Default (H.263)
Идентификатор кодека :XVID
Продолжительность :1h 43mn 7s 880ms
Битрейт :1 635 Kbps
Ширина :640 pixels
Высота :260 pixels
Соотношение сторон :2.462
Частота кадров :25.000 fps
Глубина цвета :8 bits
Подвыборка цветности :4:2:0
Цветовое пространство :YUV
Тип развертки :Progressive
Бит/(Пиксели*Кадры) :0.393
Размер потока :1.18 GiB (80%)
Библиотека кодирования :FFmpeg0.4.9-pre1b4752

Аудио #1
Идентификатор :1
Формат :MPEG Audio
Идентификатор кодека :55
Продолжительность :01:43:07.872
Вид битрейта :Constant
Битрейт :128 Kbps
Канал(ы) :2 channels
Частота :48.0 KHz
Метод сжатия :Lossy
Размер потока :94.4 MiB (6%)

Аудио #2
Идентификатор &nbs
81bf4583a1bced3490afa40a98d2eada80685b5cМальчишки с улицы Пал / A pal-utcai fiuk (Золтан Фабри, драма, 1968) [DVDRip, Профессиональный (полное дублирование)+оригинал] Мальчишки с улицы Пал / A pal-utcai fiuk (Золтан Фабри, драма, 1968) [DVDRip, Профессиональный (полное дублирование)+оригинал] " />

Аплоадер: Админ, дата: 1-06-2012, 22:16, торрент скачан: 359 раз

Понравилась раздача? Посмотрите эти:
  • Пятая печать / Az Otodik Pecset (Золтан Фабри, Военная драма, притча, 1976) ...
  • Воры в законе (Юрий Кара, триллер, криминал, 1988) [DVDRip, Профессиональны ...
  • По Руси (Фёдор Филиппов, биография, 1968) [DVDRip, Не требуется]
  • Кукарача (Кети Долидзе, Сико Долидзе, драма, 1982) [DVDRip, Профессиональны ...
  • Гикор (Сергей Исраелян, драма, семейный, 1982) [DVDRip, Профессиональный (п ...
  • Гнездо на ветру (Олав Неуланд, драма, 1979) [DVDRip, Профессиональный (полн ...
  • Тоска (Фрунзе Довлатян, драма, 1990) [DVDRip, Профессиональный (полное дубл ...
  • Украденный поезд (Владимир Янчев, драма, 1971) [DVDRip, Профессиональный (п ...
  • Черная гора (Александр Згуриди, драма, семейный, 1972) [DVDRip, Профессиона ...
  • Беовульф / Beowulf (Грэм Бейкер, ужасы, фантастика, боевик, 1999) [DVDRip, ...
  • Смешная девчонка / Funny Girl (Уильям Уайлер , мюзикл, драма, мелодрама, ко ...
  • Злые улицы / Mean Streets (Мартин Скорсезе, драма, криминал, 1973) [HDRip, ...
  • Будучи там / Being There (Хэл Эшби, драма, комедия, 1979) [DVDRip, Професси ...
  • Афера / The Sting (Джордж Рой Хилл, комедия, криминал, 1973) [HDRip, Профес ...
  • Лев зимой / The Lion in Winter (Энтони Харви, драма, история, 1968) [DVDRip ...
  • Трюкач / The Stunt Man (2 части из 2-х) (Ричард Раш, боевик, триллер, комед ...
  • Бал сказок / Boszorkanyszombat (Янош Рожа, фэнтези, 1983) [DVDRip, Професси ...
  • Грек Зорба / Alexis Zorbas (Михалис Какояннис, драма, приключения, 1964) [D ...
  • Огни рампы / Limelight (Чарльз Чаплин, драма, мелодрама, комедия, музыка, 1 ...
  • Бог знает, мистер Аллисон / Heaven Knows, Mr. Allison (Джон Хьюстон, боевик ...
  • Пассажирка / Pasazerka (Анджей Мунк, Витольд Лесевич, драма, военный, истор ...
  • Битва за Рим (Битва за Рим 2) / Kampf um Rom I (Kampf um Rom II - Der Verra ...
  • Братья по крови / Blutsbruder (Вернер В. Валльрот, драма, вестерн, 1975) [D ...
  • Повышение / The Promotion (Стив Конрад, Комедия, 2008) [DVDRip, Профессиона ...
  • Убей! / Kiru (Кихачи Окамото, боевик, драма, комедия, 1968) [DVDRip, Профес ...
  • Информация
    Посетители, находящиеся в группе Гости, не могут оставлять комментарии к данной публикации.