вход на сайт

Имя пользователя :
Пароль :

Восстановление пароля Регистрация
Адела еще не ужинала / Adela jeste nevecerela (Ольдржих Липский, комедия, криминал, детектив, 1978) [DVDRip, Профессиональный (многоголосый, закадровый)+оригинал]
Рейтинг:
(голосов: 1)



[img]{THEME}/images/logopost.png[/img]



Адела еще не ужинала / Adela jeste nevecerela

Год выпуска: 1978
Страна: Чехия, Словакия
Производство: Filmove Studio Barrandov
Жанр: комедия, криминал, детектив

Режиссёр: Ольдржих Липский
В ролях: Михал Дочоломанский,Рудольф Грушинский,Милош Копецки,ЛадиславПешек,Надя Конвалинкова,Вацлав Логниский,Квета Фиалова,Ольга Шоберова,Мартин Ружек,Карел Эффа

Перевод: Профессиональный (многоголосый, закадровый)+оригинал
Субтитры: Отсутствуют

Описание:
Прославленный американский сыщик Ник Картер прибывает в Прагу, чтобы расследовать таинственное исчезновение в семье графини Тумовой. В компании с грубоватым комиссаром пражского угрозыска Ледвиной, Картер выходит на след злодея вырастившего огромный плотоядный цветок Аделу, которым совсем не прочь побаловать свое прожорливое растение не только домашними животными, но и человечиной.


Дополнительно:
MediaInfo ▼Text
Общее
Полное имя :K:РАЗДАЧААдела еще не ужиналаАдела еще не ужинала.avi
Формат :AVI
Размер :1.37 GiB
Продолжительность :01:45:58.185
Общий поток :1 853 Kbps
Программа кодирования :FairUse Wizard - http://fairusewizard.com
Библиотека кодирования :The best and REALLY easy backup tool

Видео
Идентификатор :0
Формат :MPEG-4 Visual
Параметр BVOP формата :No
Параметр Qpel формата :No
Параметр GMC формата :0
Параметр Matrix формата :Default (H.263)
Идентификатор кодека :DX50
Продолжительность :1h 45mn 58s 185ms
Битрейт :1 647 Kbps
Ширина :576 pixels
Высота :416 pixels
Соотношение сторон :1.385
Частота кадров :23.976 fps
Глубина цвета :8 bits
Подвыборка цветности :4:2:0
Цветовое пространство :YUV
Тип развертки :Progressive
Бит/(Пиксели*Кадры) :0.287
Размер потока :1.22 GiB (89%)
Библиотека кодирования :DivX503b1328

Аудио #1
Идентификатор :1
Формат :MPEG Audio
Идентификатор кодека :55
Продолжительность :01:45:58.176
Вид битрейта :Constant
Битрейт :96.0 Kbps
Канал(ы) :2 channels
Частота :48.0 KHz
Метод сжатия :Lossy
Размер потока :72.8 MiB (5%)

Аудио #
433220a970df43f6e96afd9fad7f5960c6b15ee2Адела еще не ужинала / Adela jeste nevecerela (Ольдржих Липский, комедия, криминал, детектив, 1978) [DVDRip, Профессиональный (многоголосый, закадровый)+оригинал] Адела еще не ужинала / Adela jeste nevecerela (Ольдржих Липский, комедия, криминал, детектив, 1978) [DVDRip, Профессиональный (многоголосый, закадровый)+оригинал] " />

Аплоадер: Админ, дата: 1-06-2012, 21:55, торрент скачан: 359 раз

Понравилась раздача? Посмотрите эти:
  • Несколько слишком спокойных господ / Quelques Messieurs Trop Tranquilles (Ж ...
  • Гарри-карманник / Harry in Your Pocket (Брюс Геллер, драма, комедия, кримин ...
  • Магазинчик за углом / The Shop Around the Corner (Эрнст Любич, драма, мелод ...
  • Лимонадный Джо / Limonadovy Joe aneb Konska opera (Ольдржих Липский, мюзикл ...
  • Деревенька моя центральная / Vesnicko ma strediskova (Иржи Менцель, Комедия ...
  • Час свиньи / The Hour of the Pig (Лесли Мегахи, Драма, история, криминал, д ...
  • Шарло в Испании / Les Charlots font lEspagne (Жан Жиро, комедия, 1972) [DVD ...
  • Удар головой / Coup de tete (Жан-Жак Анно, драма, комедия, спорт, 1978) [DV ...
  • Кто такой Гарри Крамб? / Whos Harry Crumb? (Пол Флаэрти, Комедия, криминал, ...
  • Соло для слона с оркестром (2 части из 2) (Ольдржих Липский, комедия, семей ...
  • Подмена / Switch (Блейк Эдвардс, фэнтези, комедия, криминал, 1991) [DVDRip, ...
  • Вальсирующие / Les valseuses (Бертран Блие, драма, комедия, криминал, 1966) ...
  • Свидетель обвинения / Witness for the Prosecution (Билли Уайлдер, триллер, ...
  • Афера / The Sting (Джордж Рой Хилл, комедия, криминал, 1973) [DVDRip, Профе ...
  • Укрощение строптивой / The Taming of the Shrew (Франко Дзеффирелли, комедия ...
  • День добрый, улыбка! / Bonjour sourire! (Клод Соте, комедия, 1956) [DVDRip, ...
  • Семейный доктор / House Calls (Ховард Зифф, драма, мелодрама, комедия, 1978 ...
  • Тайна Карпатского замка / Tajemstvi hradu v Karpatech (Ольдржих Липский, Ко ...
  • Орел или Решка / Pari e dispari (Серджио Корбуччи, комедия, криминал, 1978) ...
  • Уик-энд / Week End (Жан-Люк Годар, драма, комедия, 1967) [DVDRip, Профессио ...
  • Человек на коленях / Un uomo in ginocchio (Дамиано Дамиани, триллер, кримин ...
  • Чужестранец / The Stranger (Орсон Уэллс, фильм-нуар, триллер, драма, кримин ...
  • Школа воров 2 / Scuola di ladri - parte seconda (Нери Паренти, Комедия, 198 ...
  • Громовое сердце / Thunderheart (Майкл Эптед, триллер, криминал, детектив, в ...
  • Достопочтенный джентльмен / The Distinguished Gentleman (Джонатан Линн, Ком ...
  • Информация
    Посетители, находящиеся в группе Гости, не могут оставлять комментарии к данной публикации.