вход на сайт

Имя пользователя :
Пароль :

Восстановление пароля Регистрация
Господин 420 / Shree 420 (Радж Капур, мюзикл, драма, мелодрама, 1955) [DVDRip, Профессиональный (полное дублирование)]
Рейтинг:
(голосов: 1)



[img]{THEME}/images/logopost.png[/img]



Господин 420 / Shree 420

Год выпуска: 1955
Страна: Индия
Производство: R.K. Films Ltd.
Жанр: мюзикл, драма, мелодрама

Режиссёр: Радж Капур
В ролях: Наргис, Надира
, Радж Капур, Немо
, Лалита Павар, М. Кумар, Хари Шивдасани, Нана Палсикар, Бхудо Адвани, Песи Пател

Перевод: Профессиональный (полное дублирование)
Субтитры: Отсутствуют

Описание:
Это фильм о веселом и бедном бродяге Радже, который путешествует по городам Индии, напевая веселую песенку о самом себе. Испытав в своей жизни бедность, богатство и любовь, Раджа остается честным и благородным, каким и является на самом деле простой человек.


Дополнительно:
Знаете ли вы, что... ▼
В Индии «господином 420» называют бродяг и бомжей (по номеру статьи в уголовном кодексе).
Занимает 89-е место по посещаемости среди зарубежных фильмов в советском кинопрокате.

MediaInfo ▼Text
Общее
Полное имя :D:РаздачаГосподин 420Господин 420.avi
Формат :AVI
Размер :1.36 GiB
Продолжительность :02:43:41.520
Общий поток :1 193 Kbps
Программа кодирования :VirtualDubModRus 1.5.10.2 (build 2540/release)

Видео
Идентификатор :0
Формат :MPEG-4 Visual
Профиль формата :Advanced [email protected]
Параметр BVOP формата :2
Параметр Qpel формата :No
Параметр GMC формата :0
Параметр Matrix формата :Default (MPEG)
Идентификатор кодека :XVID
Продолжительность :2h 43mn 41s 478ms
Битрейт :1 104 Kbps
Ширина :544 pixels
Высота :416 pixels
Соотношение сторон :1.308
Частота кадров :23.976 fps
Глубина цвета :8 bits
Подвыборка цветности :4:2:0
Цветовое пространство :YUV
Тип развертки :Progressive
Бит/(Пиксели*Кадры) :0.203
Размер потока :1.26 GiB (93%)
Библиотека кодирования :XviD0046

Аудио #1
Идентификатор :1
Формат :MPEG Audio
Идентификатор кодека :55
Продолжительность :02:43:41.520
Вид битрейта :Constant
Битрейт :80.0 Kbps
Канал(ы) :1 channel
Частота :48.0 KHz
Метод сжатия :Lossy
Размер потока :93.7 MiB (7%)Тех. данные:
Качество:DVDRip
Прод
5c09380a6995154c365e5f4397c88b0bdf3a84e4Господин 420 / Shree 420 (Радж Капур, мюзикл, драма, мелодрама, 1955) [DVDRip, Профессиональный (полное дублирование)] Господин 420 / Shree 420 (Радж Капур, мюзикл, драма, мелодрама, 1955) [DVDRip, Профессиональный (полное дублирование)] " />

Аплоадер: Админ, дата: 31-05-2012, 01:41, торрент скачан: 359 раз

Понравилась раздача? Посмотрите эти:
  • С другим лицом / Kudrat (Радж Н. Сиппи, драма, мелодрама, комедия, 1998) [D ...
  • Однажды на матрасе / Once Upon a Mattress (Кэтлин Маршалл, мюзикл, мелодрам ...
  • Кукарача (Кети Долидзе, Сико Долидзе, драма, 1982) [DVDRip, Профессиональны ...
  • Знахарь / Znachor (Ежи Гоффман, Драма, мелодрама, 1981) [DVDRip, Профессион ...
  • Черный принц Аджуба (Шаши Капур, Геннадий Васильев, фэнтези, приключения, 1 ...
  • Украденный поезд (Владимир Янчев, драма, 1971) [DVDRip, Профессиональный (п ...
  • Моя любовь (Владимир Корш-Саблин, мюзикл, мелодрама, комедия, 1940) [DVDRip ...
  • Летучая мышь (Реставрация) (Ян Фрид, мюзикл, комедия, 1978) [DVDRip, Профес ...
  • Мое имя Клоун / Mera Naam Joker (Радж Капур, мелодрама, 1970 г.) [DVDRip, п ...
  • Лимонадный Джо / Limonadovy Joe aneb Konska opera (Ольдржих Липский, мюзикл ...
  • Черная гора (Александр Згуриди, драма, семейный, 1972) [DVDRip, Профессиона ...
  • Пиковая Дама (Роман Тихомиров, мюзикл, драма, 1961) [DVDRip, Не требуется]
  • Трембита (Олег Николаевский, мюзикл, мелодрама, комедия, 1968) [DVDRip, Не ...
  • Табор уходит в небо (Эмиль Лотяну, мюзикл, драма, мелодрама, 1976) [DVDRip, ...
  • 31 июня (2 части из 2) (Леонид Квинихидзе, мюзикл, фэнтези, мелодрама, 1978 ...
  • Русалочка (Владимир Бычков, мюзикл, фэнтези, мелодрама, семейный, 1976) [DV ...
  • Приключения маленького Мука (Елизавета Кимягарова, мюзикл, семейный, 1983) ...
  • Смешная девчонка / Funny Girl (Уильям Уайлер , мюзикл, драма, мелодрама, ко ...
  • Четыре мушкетера Шарло / Les quatre Charlots mousquetaires (Андре Юнебелль, ...
  • Любовь без границ / Sadiyaan (Радж Канвар, драма, мелодрама, 2010) [DVDRip, ...
  • Серенада солнечной долины / Sun Valley Serenade (Х. Брюс Хамберстоун, мюзик ...
  • Огни рампы / Limelight (Чарльз Чаплин, драма, мелодрама, комедия, музыка, 1 ...
  • Братья по крови / Blutsbruder (Вернер В. Валльрот, драма, вестерн, 1975) [D ...
  • Ганг, твои воды замутились / Ram Teri Ganga Maili (Радж Капур, мюзикл, мело ...
  • Улыбки летней ночи / Sommarnattens leende (Ингмар Бергман, мелодрама, комед ...
  • Информация
    Посетители, находящиеся в группе Гости, не могут оставлять комментарии к данной публикации.