вход на сайт

Имя пользователя :
Пароль :

Восстановление пароля Регистрация
Скромное обаяние буржуазии / Le charme discret de la bourgeoisie (Луис Бунюэль, фэнтези, драма, комедия, 1972) [DVDRip, Профессиональный (многоголосый, закадровый)]
Рейтинг:
(голосов: 1)



[img]{THEME}/images/logopost.png[/img]





Скромное обаяние буржуазии / Le charme discret de la bourgeoisie

Год выпуска: 1972
Страна: Франция, Италия,Испания
Производство: Dean Film, Greenwich Film Productions, Jet Films S.A.
Жанр: фэнтези, драма, комедия

Режиссёр: Луис Бунюэль
В ролях: Фернандо Рей ,Поль Франкёр ,Дельфин Сейриг, Бюль Ожье, Стефан Одран, Жан-Пьер Кассель, Жюльен Берто ,Милена Вукотич ,Мария Габриэлла Майон, Клод Пьеплю

Перевод: Профессиональный (многоголосый, закадровый)
Субтитры: Отсутствуют

Описание:
Насмешливая, сюрреалистическая зарисовка никчемной жизни буржуа. Непредвиденные обстоятельства с завидным постоянством препятствуют вожделению героев отобедать. Сон и явь сплетаются в калейдоскоп бредовых событий.


Дополнительно:
Рейтинг MPAA: ▼
Рейтинг PG - Рекомендуется присутствие родителей



MediaInfo ▼Text
Общее
Полное имя :D:РаздачаСкромное обаяние буржуазииSkromnoe_obayanie_burzhuazii.avi
Формат :AVI
Размер :672 MiB
Продолжительность :01:41:40.600
Общий поток :924 Kbps
Программа кодирования :Nandub v1.0rc2
Библиотека кодирования :Nandub build 1853/release

Видео
Идентификатор :0
Формат :MPEG-4 Visual
Идентификатор кодека :DIV3
Продолжительность :1h 41mn 40s 600ms
Битрейт :819 Kbps
Ширина :512 pixels
Высота :312 pixels
Соотношение сторон :1.641
Частота кадров :25.000 fps
Глубина цвета :8 bits
Цветовое пространство :YUV
Бит/(Пиксели*Кадры) :0.205
Размер потока :596 MiB (89%)

Аудио #1
Идентификатор :1
Формат :MPEG Audio
Идентификатор кодека :55
Продолжительность :01:41:40.560
Вид битрейта :Variable
Битрейт :91.7 Kbps
Канал(ы) :2 channels
Частота :48.0 KHz
Метод сжатия :Lossy
Размер потока :66.7 MiB (10%)Тех. данные:
Качество:DVDRip
Продолжительность:01:41:40 час

Формат: AVI
Видео кодек:
Аудио кодек: MPA1L3
Видео: 512 x 312 (1.641), 25.000 fps, 819 Kbps, 0.205 bit/pixel
Аудио : 48.0 KHz, , 2 channels (), 91.7 Kbps"ВНИМАНИЕ! Уважаемый Пользователь трекера, прочти пожалуйста перед скачкой!" ▼Добрый день, а может вечер уважаемый пользователь!Причиной этого сообщения послужило следую
dd2c4cc356b9388a15aae0cb7acc59e445f50420Скромное обаяние буржуазии / Le charme discret de la bourgeoisie (Луис Бунюэль, фэнтези, драма, комедия, 1972) [DVDRip, Профессиональный (многоголосый, закадровый)] Скромное обаяние буржуазии / Le charme discret de la bourgeoisie (Луис Бунюэль, фэнтези, драма, комедия, 1972) [DVDRip, Профессиональный (многоголосый, закадровый)] " />

Аплоадер: Админ, дата: 15-05-2012, 19:31, торрент скачан: 359 раз

Понравилась раздача? Посмотрите эти:
  • Привидения по-итальянски / Questi fantasmi (Ренато Кастеллани, фэнтези, ком ...
  • Сезар и Розали / Cesar et Rosalie (Клод Соте, драма, комедия, 1972) [BDRip, ...
  • Скромное обаяние буржуазии / Le charme discret de la bourgeoisie (Луис Буню ...
  • Скромное обаяние буржуазии / Le charme discret de la bourgeoisie (Луис Буню ...
  • Дневная красавица / Belle de jour (Луис Бунюэль, Рене Клеман, драма, 1967) ...
  • Сердце и души / Heart and Souls (Рон Андервуд, фэнтези, драма, мелодрама, к ...
  • Скромное обаяние буржуазии / Le charme discret de la bourgeoisie (Луис Буню ...
  • Тристана / Tristana (Луис Бунюэль, Драма, 1970) [DVDRip, Профессиональный ( ...
  • Дневная красавица / Belle de jour (Луис Бунюэль, драма, 1967) [HDRip, Профе ...
  • Колокол, книга и свеча / Bell Book and Candle (Ричард Квин, фэнтези, комеди ...
  • Палач / El verdugo (Луис Гарсия Берланга, драма, комедия, 1963) [DVDRip, Пр ...
  • Суперполицейский / Poliziotto superpiu (Серджио Корбуччи, фантастика, фэнте ...
  • Млечный путь / La voie lactee (Луис Бунюэль, драма, комедия, 1969) [DVDRip, ...
  • Робинзон Крузо / Robinson Crusoe (Луис Бунюэль, драма, приключения, 1954) [ ...
  • Кабаре / Cabaret (Боб Фосси, мюзикл, драма, музыка, 1972) [DVDRip, (2х)Проф ...
  • Орел или Решка / Pari e dispari (Серджио Корбуччи, комедия, криминал, 1978) ...
  • Уик-энд / Week End (Жан-Люк Годар, драма, комедия, 1967) [DVDRip, Профессио ...
  • Человек с Востока / E poi lo chiamarono il magnifico (Энцо Барбони, боевик, ...
  • Этот смутный объект желания / Cet obscur objet du desir (Луис Бунюэль, драм ...
  • Бойня номер пять / Slaughterhouse-Five (Джордж Рой Хилл, Фантастика, Фэнтез ...
  • Информация
    Посетители, находящиеся в группе Гости, не могут оставлять комментарии к данной публикации.