вход на сайт

Имя пользователя :
Пароль :

Восстановление пароля Регистрация
Пикирующий бомбардировщик / Dive Bomber (Майкл Кёртиц, драма, 1941) [DVDRip, Профессиональный (одноголосый)]
Рейтинг:
(голосов: 1)



[img]{THEME}/images/logopost.png[/img]





Пикирующий бомбардировщик / Dive Bomber

Год выпуска: 1941
Страна: США
Производство: Warner Bros. Pictures
Жанр: драма

Режиссёр: Майкл Кёртиц
В ролях: Эррол Флинн, Фред МакМюррэй, Ральф Беллами, Алексис Смит, Роберт Армстронг, Режис Туми, Аллен Дженкинс, Майкл Гэйл, Херберт Андерсон, Морони Олсен

Перевод: Профессиональный (одноголосый)
Субтитры: Отсутствуют

Описание:
Дню Победы в Великой Отечественной Войне посвящаются лучшая классика зарубежного кино военной тематики!

Фильм снят в канун Второй мировой войны. Он рассказывает о работе военно-морских медиков и летчиков США, связанной с решением проблем аэронавигационной медицины. Их усилия впоследствии спасли жизни многим пилотам, поднимавшим свои боевые машины с палуб авианосцев и взлетных полос военно-морских баз.


Дополнительно:
MediaInfo ▼Text
Общее
Полное имя :J:Кинокопилка.РуРАЗДАЧАПикирующий бомбардировщикDivebomber.avi
Формат :AVI
Размер :1.36 GiB
Продолжительность :02:07:06.280
Общий поток :1 529 Kbps
Библиотека кодирования :VirtualDub build 18160/release

Видео
Идентификатор :0
Формат :MPEG-4 Visual
Параметр BVOP формата :1
Параметр Qpel формата :No
Параметр GMC формата :0
Параметр Matrix формата :Default (H.263)
Идентификатор кодека :DX50
Продолжительность :2h 7mn 6s 280ms
Битрейт :1 391 Kbps
Ширина :688 pixels
Высота :496 pixels
Соотношение сторон :1.387
Частота кадров :25.000 fps
Глубина цвета :8 bits
Подвыборка цветности :4:2:0
Цветовое пространство :YUV
Тип развертки :Progressive
Бит/(Пиксели*Кадры) :0.163
Размер потока :1.23 GiB (91%)
Библиотека кодирования :DivX503b1328p

Аудио #1
Идентификатор :1
Формат :MPEG Audio
Идентификатор кодека :55
Продолжительность :02:07:06.192
Вид битрейта :Constant
Битрейт :128 Kbps
Канал(ы) :2 channels
Частота :48.0 KHz
Метод сжатия :Lossy
Размер потока :116 MiB (8%)Тех. данные:
Качество:DVDRip
Продолжительность:02:07:00 час

Формат: AVI
Видео кодек: DivX
Аудио кодек: MPA
1612838f53a651cc5719a2bcf2e39c766edc945aПикирующий бомбардировщик / Dive Bomber (Майкл Кёртиц, драма, 1941) [DVDRip, Профессиональный (одноголосый)] Пикирующий бомбардировщик / Dive Bomber (Майкл Кёртиц, драма, 1941) [DVDRip, Профессиональный (одноголосый)] " />

Аплоадер: Админ, дата: 7-05-2012, 02:24, торрент скачан: 359 раз

Понравилась раздача? Посмотрите эти:
  • Молчаливый партнер / The Silent Partner (Дэрил Дьюк, триллер, драма, кримин ...
  • Тутси / Tootsie (Сидни Поллак, Драма, мелодрама, комедия, 1982) [DVDRip, Пр ...
  • Покаяние (Тенгиз Абуладзе, драма, комедия, 1984) [DVDRip, Профессиональный ...
  • Сержант Калень / Ogniomistrz Kalen (Эва Петельска, Чеслав Петельский, драма ...
  • Меч Гидеона / Sword of Gideon (Майкл Андерсон, боевик, триллер, драма, 1986 ...
  • Таинственный остров (Эдуард Пенцлин, фантастика, приключения, семейный, 194 ...
  • Потопить "Бисмарк" / Sink the Bismarck (Льюис Гилберт, боевик, драма, военн ...
  • Таинственный остров / Остров приключений / Mysterious Island (Сай Эндфилд, ...
  • Черное солнце: Бойня в Нанкине / Hei tai yang Nan Jing da tu sha (Тун Фей М ...
  • Ад для героев / Hell Is for Heroes (Дон Сигел, боевик, драма, военный, 1962 ...
  • Лиловая равнина / The Purple Plain (Роберт Пэрриш, боевик, драма, приключен ...
  • Дыхание скандала / A Breath of Scandal (Майкл Кёртиц, драма, мелодрама, ком ...
  • Красавица Мемфиса / Memphis Belle (Майкл Кейтон-Джонс, боевик, драма, военн ...
  • Бог знает, мистер Аллисон / Heaven Knows, Mr. Allison (Джон Хьюстон, боевик ...
  • Опасное погружение / Crash Dive (Арчи Майо, боевик, триллер, драма, мелодра ...
  • Звезда Африки / Der Stern von Afrika (Альфред Вайденманн, драма, военный, 1 ...
  • Император севера / Emperor of the North Pole (Роберт Олдрич, боевик, трилле ...
  • Калифорнийский отель / California Suite (Херберт Росс, мелодрама, комедия, ...
  • Ростовщик / The Pawnbroker (Сидни Люмет, драма, 1964) [DVDRip, Любительский ...
  • Медведи и я / The Bears and I (Бернард МакЭвети, драма, семейный, 1974) [DV ...
  • Информация
    Посетители, находящиеся в группе Гости, не могут оставлять комментарии к данной публикации.