вход на сайт

Имя пользователя :
Пароль :

Восстановление пароля Регистрация
Ресторан господина Септима / Le grand restaurant (Жак Бенар, комедия, криминал, 1966) [HDRip, Дублированный]
Рейтинг:
(голосов: 1)



[img]{THEME}/images/logopost.png[/img]



Ресторан господина Септима / Le grand restaurant

Год выпуска: 1966
Страна: Франция
Производство: Gaumont International
Жанр: комедия, криминал

Режиссёр: Жак Бенар
В ролях: Луи де Фюнес, Бернар Блие, Венантино Венантини, Хуан Рамирес, Ноэль Роквер, Фолько Люлли, Ив Арканель, Рене Бертье, Альбер Даньян, Робер Дальбан

Перевод: Дублированный (Союзмультфильм, 1973 г.)
Субтитры: Отсутствуют

Описание: С точки зрения работников ресторана их хозяин г-н Септим просто невыносим. У него всегда есть основания для придирок, если нет — он их придумывает. Однажды во время ужина в его ресторане похищают президента некого государства.

Что бы спасти репутацию своего ресторана и отчасти по принуждению Септим решает лично участвовать в расследовании. Шпионские похождения Луи Де Фюнеса подарят Вам много веселья и удовольствия.
"Знаете ли вы, что..." ▼-Под рестораном Септима подразумевается известный парижский ресторан Chez Maxim.
-Перевод оригинального названия - «Большой ресторан».


Качество: HDRip (Исходник: BDRip 720p)
Продолжительность: 01:27:06 час.

Формат: AVI
Видео кодек: XviD
Аудио кодек: MP3
Видео: 720x304 (16:9), 24.000 fps, XviD ~1056 kbps, 0.201 bit/pixel
Аудио: 48 kHz, MP3, 2 ch, ~128.00 kbps avg | Russian (DUB)

Премьера (мир): 9 сентября 1966
Mediainfo ▼General
Complete name : /Torrents/home/borodach/data/Le.grand.restaurant.HDRip.avi
Format : AVI
Format/Info : Audio Video Interleave
File size : 743 MiB
Duration : 1h 27mn
Overall bit rate : 1 193 Kbps
Writing application : VirtualDubMod 1.5.10.2 (build 2540/release)
Writing library : VirtualDubMod build 2540/release

Video
ID : 0
Format : MPEG-4 Visual
Format profile : Advanced [email protected]
Format settings, BVOP : 2
Format settings, QPel : No
Format settings, GMC : No warppoints
Format settings, Matrix : Default (MPEG)
Codec ID : XVID
Codec ID/Hint : XviD
Duration : 1h 27mn
Bit rate : 1 056 Kbps
Width : 720 pixels
Height : 304 pixels
Display aspect ratio : 2.35:1
Frame rate : 24.000 fps
Color space : YUV
Chroma subsampling : 4:2:0
Bit depth : 8 bits
Scan type : Progressive
Compression mode : Lossy
Bits/(Pixel*Frame) : 0.201
Stream size : 658 MiB (88%)
Writing library : XviD 1.2.1 (UTC 2008-12-04)

Audio
ID : 1
Format : MPEG Audio
Format version : Version 1
Format profile : Layer 3
Codec ID : 55
Codec ID/Hint : MP3
Duration : 1h 27mn
Bit rate mode : Constant
Bit rate : 128 Kbps
Channel(s) : 2 channels
Sampling rate : 48.0 KHz
Compression mode : Lossy
Stream size : 79.8 MiB (11%)
Alignment : Aligned on interleaves
Interleave, duration : 42 ms (1.00 video frame)
Interleave, preload duration : 504 ms
Writing library : LAME3.98r
Encoding settings : -m s -V 4 -q 2 -lowpass 17 -b 128





f264e9e70a971675f3b10b99a1bf9976b16b83a4Ресторан господина Септима / Le grand restaurant (Жак Бенар, комедия, криминал, 1966) [HDRip, Дублированный] Ресторан господина Септима / Le grand restaurant (Жак Бенар, комедия, криминал, 1966) [HDRip, Дублированный] " />

Аплоадер: Админ, дата: 2-05-2012, 22:07, торрент скачан: 359 раз

Понравилась раздача? Посмотрите эти:
  • Ресторан господина Септима / Le grand restaurant (Жак Бенар, комедия, крими ...
  • Погнали! / Getaway (Кортни Соломон, Боевик, Криминал, 2013) [HDRip, Професс ...
  • Погнали! / Getaway (Кортни Соломон, Боевик,Криминал, 2013) [HDRip, Професси ...
  • Верное дельце / Une pure affaire (Александр Коффре, Боевик, Комедия, Кримин ...
  • Мои герои / Mes heros (Эрик Беснард, комедия, 2012) [HDRip, Профессиональны ...
  • Ледяной / The Iceman (Ариэль Вромен, триллер, драма, криминал, биография, 2 ...
  • Решала (Роман Асхаев, Драма,Криминал, 2012) [WEB-DLRip, Не требуется]
  • Ресторан господина Септима / Le grand restaurant (Жак Беснард, комедия, кри ...
  • 23:59 / 23:59 (Гилберт Чан, Ужасы, 2011) [HDRip, Любительский (одноголосый ...
  • Газетчик / The Paperboy (Ли Дэниелс, триллер, 2012) [HDRip, Дублированный]
  • Скуби-Ду! Маска Синего Сокола / Scooby-Doo! Mask Of The Blue Falcon (Оливье ...
  • Ресторан господина Септима / Le grand restaurant (Жак Бенар, комедия, крими ...
  • Новые парни турбо / New Kids Turbo (Штефен Хаарс, Боевик, комедия, 2010) [H ...
  • Чемпионат Европы 2012 / Группа D / 1-й тур / Украина - Швеция / Спорт 1 [11 ...
  • Tank Feat. T.I. & Kris Stephens / Compliments [2012, RnB,Hip-Hop, HDRip]
  • Порочная страсть / Arbitrage (Николас Джареки, триллер, драма, 2012) [HDRip ...
  • Неделя в NBA с В.Гомельским / НТВ+ [28.06.2011, SD, XviD, RU, SAT]
  • Ключ от всех дверей / The Skeleton Key (Иэн Софтли, ужасы, 2005) [HDRip, Ду ...
  • Стыд / Shame (Стив МакКуин, драма, 2011) [HDRip, Дублированный + Оригинал] ...
  • Последний отпуск / Last Holiday (Уэйн Ван, Драма, комедия, приключения, 200 ...
  • Будь круче! / Be Cool (Ф. Гэри Грей, комедия, криминал, 2005) [BDRip, Дубли ...
  • Романтики / The Romantics (Галт Нидерхоффер, Драма, мелодрама, комедия, 201 ...
  • Чемпионат Европы 2012 / Группа B / 1-й тур / Германия - Португалия / Спорт ...
  • Искажение / Skew (Сейв Челенз, ужасы, триллер, 2011) [HDRip, Профессиональн ...
  • Ничего, кроме правды / Nothing But the Truth (Род Лури, триллер, драма, 200 ...
  • Информация
    Посетители, находящиеся в группе Гости, не могут оставлять комментарии к данной публикации.