вход на сайт

Имя пользователя :
Пароль :

Восстановление пароля Регистрация
Укрощение строптивой / The Taming of the Shrew (Франко Дзеффирелли, комедия, драма, мелодрама, 1967) [DVDRip, Профессиональный (многоголосый, закадровый)]
Рейтинг:
(голосов: 1)



[img]{THEME}/images/logopost.png[/img]





Укрощение строптивой / The Taming of the Shrew

Год выпуска: 1967
Страна: США, Италия
Производство: F.A.I., Royal Films International
Жанр: комедия, драма, мелодрама

Режиссёр: Франко Дзеффирелли
В ролях: Элизабет Тейлор, Ричард Бёртон, Сирил Кьюcак, Майкл Хордерн, Альфред Линч, Алан Уэбб, Джанкарло Кобелли, Вернон Добчефф, Кен Парри

Перевод: Профессиональный (многоголосый, закадровый)
Субтитры: Отсутствуют

Описание:
Италия, XVI век. У богатого торговца две дочери на выданье. За младшей дочерью многие ухаживают, но по традиции её не могут выдать замуж вперёд старшей сестры. Охотников жениться на своенравной Катарине не находится. И вот в город приезжает незнакомец по имени Петруччио и решает во что бы то ни стало укротить строптивую девицу.


Дополнительно:
MediaInfo ▼Text
Общее
Полное имя :J:Кинокопилка.РуРАЗДАЧАУкрощение строптивойukroschenie_stroptivoy.avi
Формат :AVI
Размер :788 MiB
Продолжительность :01:56:48.560
Общий поток :943 Kbps
Программа кодирования :FairUse Wizard - http://fairusewizard.com
Библиотека кодирования :The best and REALLY easy backup tool

Видео
Идентификатор :0
Формат :MPEG-4 Visual
Параметр BVOP формата :1
Параметр Qpel формата :No
Параметр GMC формата :0
Параметр Matrix формата :Default (H.263)
Идентификатор кодека :DX50
Продолжительность :1h 56mn 48s 560ms
Битрейт :741 Kbps
Ширина :544 pixels
Высота :304 pixels
Соотношение сторон :1.789
Частота кадров :25.000 fps
Глубина цвета :8 bits
Подвыборка цветности :4:2:0
Цветовое пространство :YUV
Тип развертки :Progressive
Бит/(Пиксели*Кадры) :0.179
Размер потока :619 MiB (79%)
Библиотека кодирования :DivX503b2318p

Аудио #1
Идентификатор :1
Формат :MPEG Audio
Идентификатор кодека :55
Продолжительность :01:56:48.528
Вид битрейта :Constant
Битрейт :192 Kbps
Канал(ы) :2 channels
Частота :48.0 KHz
Метод сжатия :Lossy
Размер потока :160 MiB (20%)Тех. данные:
Качество:DVDRip
Про
ff8d4dd8e699e1101581f55514970677adf883faУкрощение строптивой / The Taming of the Shrew (Франко Дзеффирелли, комедия, драма, мелодрама, 1967) [DVDRip, Профессиональный (многоголосый, закадровый)] Укрощение строптивой / The Taming of the Shrew (Франко Дзеффирелли, комедия, драма, мелодрама, 1967) [DVDRip, Профессиональный (многоголосый, закадровый)] " />

Аплоадер: Админ, дата: 21-04-2012, 21:31, торрент скачан: 359 раз

Понравилась раздача? Посмотрите эти:
  • Привидения по-итальянски / Questi fantasmi (Ренато Кастеллани, фэнтези, ком ...
  • Поездка в Америку / Coming to America (Джон Лэндис, драма, мелодрама, комед ...
  • С другим лицом / Kudrat (Радж Н. Сиппи, драма, мелодрама, комедия, 1998) [D ...
  • Магазинчик за углом / The Shop Around the Corner (Эрнст Любич, драма, мелод ...
  • Выпускник / The Graduate (Майк Николс, драма, мелодрама, комедия, 1967) [DV ...
  • Шарло в Испании / Les Charlots font lEspagne (Жан Жиро, комедия, 1972) [DVD ...
  • С террасы / From the Terrace (Марк Робсон, драма, мелодрама, 1960) [DVDRip, ...
  • Сердце и души / Heart and Souls (Рон Андервуд, фэнтези, драма, мелодрама, к ...
  • Я вас любил... (Илья Фрэз, мелодрама, комедия, 1967) [DVDRip, Не требуется] ...
  • Гамлет / Hamlet (Франко Дзеффирелли, Мелодрама, драма, 1990) [DVDRip, Профе ...
  • Джейн Эйр / Jane Eyre (Франко Дзеффирелли Franco Zeffirelli, мелодрама, дра ...
  • Укрощение строптивой / The Taming of the Shrew (Франко Дзеффирелли, комедия ...
  • Вальсирующие / Les valseuses (Бертран Блие, драма, комедия, криминал, 1966) ...
  • Жить, чтобы жить / Vivre Pour Vivre (Клод Лелуш, драма, 1967) [DVDRip, Проф ...
  • Консьерж / For Love or Money (Барри Зонненфельд, Мелодрама, комедия, 1993) ...
  • Аванти! / Avanti! (Билли Уайлдер, комедия, мелодрама, 1972) [DVDRip, Профес ...
  • День добрый, улыбка! / Bonjour sourire! (Клод Соте, комедия, 1956) [DVDRip, ...
  • Королева викингов / The Viking Queen (Дон Чэффи, боевик, приключения, 1967) ...
  • Уик-энд / Week End (Жан-Люк Годар, драма, комедия, 1967) [DVDRip, Профессио ...
  • Школа воров 2 / Scuola di ladri - parte seconda (Нери Паренти, Комедия, 198 ...
  • Информация
    Посетители, находящиеся в группе Гости, не могут оставлять комментарии к данной публикации.