вход на сайт

Имя пользователя :
Пароль :

Восстановление пароля Регистрация
Жить, чтобы жить / Vivre Pour Vivre (Клод Лелуш, драма, 1967) [DVDRip, Профессиональный (многоголосый, закадровый)+оригинал]
Рейтинг:
(голосов: 1)



[img]{THEME}/images/logopost.png[/img]





Жить, чтобы жить / Vivre Pour Vivre

Год выпуска: 1967
Страна: Франция, Италия
Производство: Les Films Ariane, Les Productions Artistes Associes, Vides Cinematografica
Жанр: драма

Режиссёр: Клод Лелуш
В ролях: Ив Монтан, Кэндис Берген, Анни Жирардо, Ирен Тюнк, Анук Фержак, Ута Тагер, Жан Колломб

Перевод: Профессиональный (многоголосый, закадровый)+оригинал
Субтитры: Отсутствуют

Описание:
Бесстрашный журналист Коломб разрывается между женой и любовницей, между сверкающими небоскребами Манхэттена и джунглями Камбоджи.


Дополнительно:
MediaInfo ▼Text
Общее
Полное имя :L:РАЗДАЧАЖить, чтобы житьzhit_chtoby_zhit.avi
Формат :AVI
Размер :1.47 GiB
Продолжительность :02:05:02.080
Общий поток :1 681 Kbps
Программа кодирования :VirtualDubMod 1.5.10.2 (build 2540/release)
Библиотека кодирования :VirtualDubMod build 2540/release

Видео
Идентификатор :0
Формат :MPEG-4 Visual
Профиль формата :Advanced [email protected]
Параметр BVOP формата :1
Параметр Qpel формата :No
Параметр GMC формата :0
Параметр Matrix формата :Default (MPEG)
Идентификатор кодека :XVID
Продолжительность :2h 5mn 2s 80ms
Битрейт :1 283 Kbps
Ширина :688 pixels
Высота :384 pixels
Соотношение сторон :1.792
Частота кадров :25.000 fps
Глубина цвета :8 bits
Подвыборка цветности :4:2:0
Цветовое пространство :YUV
Тип развертки :Progressive
Бит/(Пиксели*Кадры) :0.194
Размер потока :1.12 GiB (76%)
Библиотека кодирования :XviD0047

Аудио #1
Идентификатор :1
Формат :AC-3
Формат/Информация :Audio Coding 3
Идентификатор кодека :2000
Продолжительность :02:05:02.080
Вид битрейта :Constant
Битрейт :192 Kbps
Канал(ы) :2 channels
Расположение каналов :Front: L R
Частота :48.0 KHz
Битовая глубина :16 bits
Метод сжатия :Lossy
Размер потока :172 MiB (11%)

Аудио #2
Идентификатор
772a5cdb54e119b0b13fc9982726ee30df76e87aЖить, чтобы жить / Vivre Pour Vivre (Клод Лелуш, драма, 1967) [DVDRip, Профессиональный (многоголосый, закадровый)+оригинал] Жить, чтобы жить / Vivre Pour Vivre (Клод Лелуш, драма, 1967) [DVDRip, Профессиональный (многоголосый, закадровый)+оригинал] " />

Аплоадер: Админ, дата: 19-03-2012, 07:19, торрент скачан: 359 раз

Понравилась раздача? Посмотрите эти:
  • Привидения по-итальянски / Questi fantasmi (Ренато Кастеллани, фэнтези, ком ...
  • Сезар и Розали / Cesar et Rosalie (Клод Соте, драма, комедия, 1972) [BDRip, ...
  • Поездка в Америку / Coming to America (Джон Лэндис, драма, мелодрама, комед ...
  • Мушетт / Mouchette (Робер Брессон, драма, 1967) [DVDRip, Профессиональный ( ...
  • Реквием по убийце / Requiem pour une tueuse (Жером ле Гри, Мелани Лоран, Тр ...
  • Гуляка / Le cavaleur (Филипп де Брока, комедия, 1979) [DVDRip, Профессиона ...
  • Джентельменское соглашение / Gentlemans Agreement (Элиа Казан, драма, мелод ...
  • Процесс Жанны Д Арк / Proces de Jeanne dArc (Робер Брессон, драма, военный, ...
  • Странный груз / Strange Cargo (Фрэнк Борзеги, драма, мелодрама, 1940) [DVDR ...
  • (1967) Fausto Papetti / 8A Raccolta (Instrumental) [MP3, 256 kbps/CBR]
  • Любовники / Les amants (Луи Малль, драма, 1958) [DVDRip, Профессиональный ( ...
  • Лето с Моникой / Sommaren med Monika (Ингмар Бергман, драма, мелодрама, 195 ...
  • Квадрофения / Quadrophenia (Фрэнк Роддэм, драма, криминал, музыка, 1979) [H ...
  • День добрый, улыбка! / Bonjour sourire! (Клод Соте, комедия, 1956) [DVDRip, ...
  • Королева викингов / The Viking Queen (Дон Чэффи, боевик, приключения, 1967) ...
  • Конвейер / Blue Collar (Пол Шредер, драма, криминал, 1977) [DVDRip, Професс ...
  • Ночная Маргарита / Marguerite de la nuit (Клод Отан-Лара, фэнтези, драма, 1 ...
  • Прекрасная история / La belle histoire (Клод Лелуш, фэнтези, драма, мелодра ...
  • С Новым годом! / La bonne annee (Клод Лелуш, комедия, 1973) [DVDRip, Профес ...
  • Седьмой континент / Der siebente Kontinent (Михаэль Ханеке, драма, 1989) [D ...
  • Млечный путь / La voie lactee (Луис Бунюэль, драма, комедия, 1969) [DVDRip, ...
  • Повышение / The Promotion (Стив Конрад, Комедия, 2008) [DVDRip, Профессиона ...
  • Уик-энд / Week End (Жан-Люк Годар, драма, комедия, 1967) [DVDRip, Профессио ...
  • Властелин джунглей / Ghatothkach (Сингитам Шриниваса Рао, мультфильм, 2008) ...
  • Улица Прери / Rue des Prairies (Дени де Ла Пательер, драма, 1959) [DVDRip, ...
  • Информация
    Посетители, находящиеся в группе Гости, не могут оставлять комментарии к данной публикации.