вход на сайт

Имя пользователя :
Пароль :

Восстановление пароля Регистрация
Путешествие на Луну / Le Voyage dans la Lune (Жорж Мельес, короткометражка, фантастика, приключения, комедия-фарс, 1902) [DVDRip, Любительский (одноголосый)+оригинал]
Рейтинг:
(голосов: 1)



[img]{THEME}/images/logopost.png[/img]



Путешествие на Луну / Le Voyage dans la Lune

Год выпуска: 1902
Страна: Франция
Производство: Star Film
Жанр: короткометражка, фантастика, приключения, комедия-фарс

Режиссёр: Жорж Мельес
В ролях: Виктор Андре, Блоэтт Бернон, Brunnet, Жанна д’Альси, Генри Деланнуа, Depierre, Farjaut, Келм, Жорж Мельес

Перевод: Любительский (одноголосый)+оригинал
Субтитры: Отсутствуют

Описание:
Ученый делает в Академии доклад о возможности полета на Луну. После бурных дискуссий решено отправить на Луну экспедицию, для которой строится космический корабль в виде полого снаряда, который запускается в космос выстрелом из огромной пушки…


Дополнительно:
MediaInfo ▼Text
Общее
Полное имя :M:ФильмыРАЗДАЧАПутешествие на Лунуlune.avi
Формат :AVI
Размер :269 MiB
Продолжительность :00:15:32.080
Общий поток :2 424 Kbps
Программа кодирования :VirtualDubModRus 1.5.10.2 (build 2542/release)
Библиотека кодирования :VirtualDubMod build 2542/release

Видео
Идентификатор :0
Формат :MPEG-4 Visual
Профиль формата :Advanced [email protected]
Параметр BVOP формата :2
Параметр Qpel формата :No
Параметр GMC формата :0
Параметр Matrix формата :Default (H.263)
Идентификатор кодека :XVID
Продолжительность :15mn 32s 80ms
Битрейт :1 595 Kbps
Ширина :720 pixels
Высота :576 pixels
Соотношение сторон :1.250
Частота кадров :25.000 fps
Глубина цвета :8 bits
Подвыборка цветности :4:2:0
Цветовое пространство :YUV
Тип развертки :Progressive
Бит/(Пиксели*Кадры) :0.154
Размер потока :177 MiB (66%)
Библиотека кодирования :XviD0050

Аудио #1
Идентификатор :1
Формат :MPEG Audio
Идентификатор кодека :55
Продолжительность :00:15:30.821
Вид битрейта :Constant
Битрейт :160 Kbps
Канал(ы) :2 channels
Частота :44.1 KHz
Метод сжатия :Lossy
Размер потока :17.8 MiB (7%)

Аудио #2
Идентификатор :2
Формат &n
120121b41f3c500160583dbc296949c79e9dccfaПутешествие на Луну / Le Voyage dans la Lune (Жорж Мельес, короткометражка, фантастика, приключения, комедия-фарс, 1902) [DVDRip, Любительский (одноголосый)+оригинал] Путешествие на Луну / Le Voyage dans la Lune (Жорж Мельес, короткометражка, фантастика, приключения, комедия-фарс, 1902) [DVDRip, Любительский (одноголосый)+оригинал] " />

Аплоадер: Админ, дата: 11-03-2012, 22:11, торрент скачан: 359 раз

Понравилась раздача? Посмотрите эти:
  • Несколько слишком спокойных господ / Quelques Messieurs Trop Tranquilles (Ж ...
  • Сигнальщик / The Signalman (Лоуренс Гордон Кларк, короткометражка, ужасы, ...
  • Пленники болот / Lure of the Wilderness (Жан Негулеско, драма, мелодрама, п ...
  • Тайная полиция Италии / Italian Secret Service (Луиджи Коменчини, комедия, ...
  • С тобой меня радует мир / S tebou me bavi svet (Мария Поледнякова, комедия, ...
  • Одинокая женщина / Kobieta samotna (Агнешка Холланд, драма, 1981) [DVDRip, ...
  • Из пушки на Луну и далее без остановок (Анатолий Резников, Рисованный мульт ...
  • Путешествие на Луну / Le Voyage dans la Lune (Жорж Мельес, короткометражка, ...
  • Шанс (Александр Майоров, фантастика, фэнтези, мелодрама, комедия, приключен ...
  • Драма (Герман Ливанов, короткометражка, комедия, 1960) [DVDRip, Не требуетс ...
  • Путешествие на Луну / Le Voyage dans la Lune (Жорж Мельес, короткометражка, ...
  • Печёнка (Арман Манарян, короткометражка, комедия, 1962) [DVDRip, Не требует ...
  • Путешествие на Луну / Le Voyage dans la lune (Жорж Мельес, короткометражка, ...
  • Пять недель на воздушном шаре / Five Weeks in a Balloon (Ирвин Аллен, мелод ...
  • 01-99 (Амаси Мартиросян, короткометражка, комедия, 1959) [DVDRip, Не требуе ...
  • Хозяин и слуга (Дмитрий Кесаянц, короткометражка, комедия, 1963) [DVDRip, Н ...
  • Кутилы / Les bons vivants (Жиль Гранжье, Жорж Лотнер, драма, комедия, 1965) ...
  • [France] Красный шар / Le ballon rouge (Альбер Ламорис, короткометражка, фэ ...
  • Круг чистой воды / Ring of Bright Water (Джек Коуффер, драма, комедия, 1969 ...
  • Розенкранц и Гильденштерн мертвы / Rosencrantz & Guildenstern Are Dead (Том ...
  • Фантастическое путешествие / Fantastic Voyage (Ричард Флайшер, фантастика, ...
  • Урок любви / En lektion i karlek (Ингмар Бергман, драма, комедия, 1954) [DV ...
  • Как раздражать людей / How to Irritate People (Йен Фордайсе, комедия, 1969) ...
  • Человек диких прерий / Man in the Wilderness (Ричард С. Сарафьян, приключен ...
  • Медведи и я / The Bears and I (Бернард МакЭвети, драма, семейный, 1974) [DV ...
  • Информация
    Посетители, находящиеся в группе Гости, не могут оставлять комментарии к данной публикации.