вход на сайт

Имя пользователя :
Пароль :

Восстановление пароля Регистрация
Лизелотта из Пфальца / Liselotte von der Pfalz (Курт Хофманн, мелодрама, комедия, история, 1966) [DVDRip, Профессиональный (одноголосый)+оригинал]
Рейтинг:
(голосов: 1)



[img]{THEME}/images/logopost.png[/img]



Лизелотта из Пфальца / Liselotte von der Pfalz

Год выпуска: 1966
Страна: Германия
Производство: Independent Film
Жанр: мелодрама, комедия, история

Режиссёр: Курт Хофманн
В ролях: Хайделинда Вайс, Харальд Лайпниц, Карин Хюбнер, Ханс Каниненберг, Роберт Дитль, Эрвин Линдер, Карла Хадимова, Фридрих фон Тун, Андреас Блум, Гизела Факкельдей

Перевод: Профессиональный (одноголосый)+оригинал
Субтитры: Отсутствуют

Описание:
Юная Лизелотта выросла в доме своего отца — Курфюста, и вовсе не спешит замуж. До тех пор, пока не поступает приказ-предложение самого короля, выдать ее за королевского брата, принца Орлеанского. Лизелотта едет в Париж…


Дополнительно:
MediaInfo ▼Text
Общее
Полное имя :K:РАЗДАЧАЛизелотта из ПфальцаLiselotta.iz.Pfalza.avi
Формат :AVI
Размер :1.67 GiB
Продолжительность :01:38:20.160
Общий поток :2 424 Kbps
Программа кодирования :VirtualDubMod 1.5.10.2 (build 2540/release)
Библиотека кодирования :VirtualDubMod build 2540/release

Видео
Идентификатор :0
Формат :MPEG-4 Visual
Профиль формата :Advanced [email protected]
Параметр BVOP формата :1
Параметр Qpel формата :No
Параметр GMC формата :0
Параметр Matrix формата :Custom
Идентификатор кодека :XVID
Продолжительность :1h 38mn 20s 160ms
Битрейт :2 090 Kbps
Ширина :720 pixels
Высота :448 pixels
Соотношение сторон :1.607
Частота кадров :25.000 fps
Глубина цвета :8 bits
Подвыборка цветности :4:2:0
Цветовое пространство :YUV
Тип развертки :Progressive
Бит/(Пиксели*Кадры) :0.259
Размер потока :1.44 GiB (86%)
Библиотека кодирования :XviD0050

Аудио #1
Идентификатор :1
Формат :MPEG Audio
Идентификатор кодека :55
Продолжительность :01:38:19.800
Вид битрейта :Constant
Битрейт :128 Kbps
Канал(ы) :2 channels
Частота :48.0 KHz
Метод сжатия :Lossy
Размер потока :90.0 MiB (5%)

Аудио #2
Идентификатор :2
Формат &n
b91b01e3b5b3327a88b370879cde35967c0e83ccЛизелотта из Пфальца / Liselotte von der Pfalz (Курт Хофманн, мелодрама, комедия, история, 1966) [DVDRip, Профессиональный (одноголосый)+оригинал] Лизелотта из Пфальца / Liselotte von der Pfalz (Курт Хофманн, мелодрама, комедия, история, 1966) [DVDRip, Профессиональный (одноголосый)+оригинал] " />

Аплоадер: Админ, дата: 24-02-2012, 03:20, торрент скачан: 359 раз

Понравилась раздача? Посмотрите эти:
  • Воздыхатель / Le soupirant (Пьер Этекс, комедия, 1962) [DVDRip, Профессиона ...
  • Поездка в Америку / Coming to America (Джон Лэндис, драма, мелодрама, комед ...
  • Однажды на матрасе / Once Upon a Mattress (Кэтлин Маршалл, мюзикл, мелодрам ...
  • Не забудь... станция Луговая (Никита Курихин, Леонид Менакер, драма, мелодр ...
  • Начальник Чукотки (Виталий Мельников, драма, комедия, приключения, история, ...
  • Али Баба и 40 разбойников / Ali Baba et les quarante voleurs (Жак Бекер, ме ...
  • Молчание - золото / Le silence est dor (Рене Клер, мелодрама, комедия, 1947 ...
  • Такси! / Taxi! (Рой Дел Рут, комедия, мелодрама, криминал, 1932) [DVDRip, П ...
  • Азарт удачи / The Fortune Cookie (Билли Уайлдер, мелодрама, комедия, 1966) ...
  • Риф Донована / Donovans Reef (Джон Форд, мелодрама, комедия, 1963) [DVDRip, ...
  • Я вас любил... (Илья Фрэз, мелодрама, комедия, 1967) [DVDRip, Не требуется] ...
  • Как украсть миллион / How to steal a million (Уильям Уайлер, комедия, крими ...
  • Гамбит / Gambit (Рональд Ним, комедия, криминал, 1966) [HDRip, Профессионал ...
  • Пять недель на воздушном шаре / Five Weeks in a Balloon (Ирвин Аллен, мелод ...
  • Как выйти замуж за миллионера / How to Marry a Millionaire (Жан Негулеско, ...
  • Лиловая равнина / The Purple Plain (Роберт Пэрриш, боевик, драма, приключен ...
  • Огни рампы / Limelight (Чарльз Чаплин, драма, мелодрама, комедия, музыка, 1 ...
  • Бог знает, мистер Аллисон / Heaven Knows, Mr. Allison (Джон Хьюстон, боевик ...
  • Отец невесты / Father of the Bride (Винсенте Миннелли, комедия, мелодрама, ...
  • Принцесса Клевская / La princesse de Cleves (Жан Деланнуа, драма, мелодрама ...
  • Розенкранц и Гильденштерн мертвы / Rosencrantz & Guildenstern Are Dead (Том ...
  • Урок любви / En lektion i karlek (Ингмар Бергман, драма, комедия, 1954) [DV ...
  • Хеллоу, Долли! / Hello, Dolly! (Джин Келли, мюзикл, мелодрама, комедия, сем ...
  • Как раздражать людей / How to Irritate People (Йен Фордайсе, комедия, 1969) ...
  • Домоуправ / The Super (Род Дэниэл, Комедия, 1991) [DVDRip, Авторский (одног ...
  • Информация
    Посетители, находящиеся в группе Гости, не могут оставлять комментарии к данной публикации.