вход на сайт

Имя пользователя :
Пароль :

Восстановление пароля Регистрация
Второй трагический Фантоцци / Il secondo tragico Fantozzi (Лучано Сальче, комедия, 1976) [DVDRip, Профессиональный (многоголосый, закадровый)]
Рейтинг:
(голосов: 1)



[img]{THEME}/images/logopost.png[/img]



Второй трагический Фантоцци / Il secondo tragico Fantozzi

Год выпуска: 1976
Страна: Италия
Производство: Rizzoli Film S.p.a.
Жанр: комедия

Режиссёр: Лучано Сальче
В ролях: Паоло Вилладжио, Анна Маццамауро, Гиги Редер, Уго Болонья, Плинио Фернандо, Антонино Фаа Ди Бруно, Паоло Паолони

Перевод: Профессиональный (многоголосый, закадровый)
Субтитры: Отсутствуют

Описание:
Его жена уехала к маме. А он решил устроить мальчишник: друзья, пиво, девушки, танцы. Через три часа пиво кончилось, девушки разделись. А жена вернулась за любимым зонтиком…


Дополнительно:
MediaInfo ▼Text
Общее
Полное имя :D:РаздачаВторой трагический ФантоцциVtoroj_tragiceskij_Fantocci.avi
Формат :AVI
Размер :1.37 GiB
Продолжительность :01:44:59.200
Общий поток :1 864 Kbps
Программа кодирования :VirtualDubMod 1.5.4.1 (build 2178/release)
Библиотека кодирования :VirtualDubMod build 2178/release

Видео
Идентификатор :0
Формат :MPEG-4 Visual
Профиль формата :Advanced [email protected]
Параметр BVOP формата :1
Параметр Qpel формата :No
Параметр GMC формата :0
Параметр Matrix формата :Custom
Идентификатор кодека :XVID
Продолжительность :1h 44mn 59s 200ms
Битрейт :1 666 Kbps
Ширина :704 pixels
Высота :384 pixels
Соотношение сторон :1.833
Частота кадров :25.000 fps
Глубина цвета :8 bits
Подвыборка цветности :4:2:0
Цветовое пространство :YUV
Тип развертки :Progressive
Бит/(Пиксели*Кадры) :0.246
Размер потока :1.22 GiB (89%)
Библиотека кодирования :XviD0047

Аудио #1
Идентификатор :1
Формат :AC-3
Формат/Информация :Audio Coding 3
Идентификатор кодека :2000
Продолжительность :01:44:59.104
Вид битрейта :Constant
Битрейт :192 Kbps
Канал(ы) :2 channels
Расположение каналов :Front: L R
Частота :48.0 KHz
Битовая глубина :16 bits
Метод сжатия :Lossy
Размер потока :144 MiB (10%)
Язык  
839385dfc7c559e293526e86887dc2ef5874d86dВторой трагический Фантоцци / Il secondo tragico Fantozzi (Лучано Сальче, комедия, 1976) [DVDRip, Профессиональный (многоголосый, закадровый)] Второй трагический Фантоцци / Il secondo tragico Fantozzi (Лучано Сальче, комедия, 1976) [DVDRip, Профессиональный (многоголосый, закадровый)] " />

Аплоадер: Админ, дата: 30-01-2012, 00:52, торрент скачан: 359 раз

Понравилась раздача? Посмотрите эти:
  • Невинный / Linnocente (Лукино Висконти, драма, мелодрама, 1976) [DVDRip, Пр ...
  • Командир / Il comandante (Паоло Хеуш, комедия, 1963) [DVDRip, Профессиональ ...
  • Фантоцци / Fantozzi (Лучиано Салче) [1975 г., Комедия, DVDRip]
  • Куда ты едешь в отпуск? / Dove vai in vacanza? (Мауро Болоньини, Лучано Сал ...
  • Пройдоха / I Tartassati (Стено, комедия, 1959) [DVDRip, Профессиональный (м ...
  • Молчание - золото / Le silence est dor (Рене Клер, мелодрама, комедия, 1947 ...
  • Эй! В моем супе девушка / Theres a Girl in My Soup (Рой Боултинг, комедия, ...
  • Мы не женаты / Were Not Married! (Эдмунд Гулдинг, мелодрама, комедия, 1952) ...
  • Андерграунд / Underground (Эмир Кустурица, драма, комедия, военный, 1995) [ ...
  • Супер Фантоцци / Super Fantozzi (Нери Паренти) [1986г.,комедия,VHSRip]
  • Фантоцци в раю / Fantozzi in paradiso (Нери Паренти / Neri Parenti) [1993 г ...
  • Фантоцци уходит на пенсию / Fantozzi va in pensione(Нери Паренти, комедия ...
  • Фантоцци против всех / Fantozzi contro tutti (Паоло Вилладжо, комедия, 1980 ...
  • У Фантоцци опять неприятности / Fantozzi subisce ancora (Нери Паренти , Ком ...
  • Неприятности с Гарри / The Trouble with Harry (Альфред Хичкок, комедия, три ...
  • Фантоцци 2000 - Клонирование / Fantozzi 2000 - la clonazione (Доменико Саве ...
  • Возвращение Фантоцци / Fantozzi - Il ritorno (Нери Паренти,комедия , 1996) ...
  • Солдат удачи / Soldier of Fortune (Эдвард Дмитрык, приключения, драма, 1955 ...
  • Консьерж / For Love or Money (Барри Зонненфельд, Мелодрама, комедия, 1993) ...
  • Лето с Моникой / Sommaren med Monika (Ингмар Бергман, драма, мелодрама, 195 ...
  • К северу от Аляски / North to Alaska (Генри Хэтэуэй, вестерн, комедия, 1960 ...
  • Дьявольское око / Djдvulens цga (Ингмар Бергман, фэнтези, драма, комедия, 1 ...
  • Повышение / The Promotion (Стив Конрад, Комедия, 2008) [DVDRip, Профессиона ...
  • Уик-энд / Week End (Жан-Люк Годар, драма, комедия, 1967) [DVDRip, Профессио ...
  • Жизнь - это долгая спокойная река / La vie est un long fleuve tranquille (Э ...
  • Информация
    Посетители, находящиеся в группе Гости, не могут оставлять комментарии к данной публикации.