вход на сайт

Имя пользователя :
Пароль :

Восстановление пароля Регистрация
Пять недель на воздушном шаре / Five Weeks in a Balloon (Ирвин Аллен, мелодрама, комедия, приключения, 1962) [DVDRip, Любительский (одноголосый)+оригинал]
Рейтинг:
(голосов: 1)



[img]{THEME}/images/logopost.png[/img]



Пять недель на воздушном шаре / Five Weeks in a Balloon

Год выпуска: 1962
Страна: США
Производство: Irwin Allen Productions
Жанр: мелодрама, комедия, приключения

Режиссёр: Ирвин Аллен
В ролях: Ред Баттонс, Фабиан, Барбара Иден, Седрик Хардвик, Петер Лорре, Ричард Хейдн, Барбара Луна, Билли Гилберт, Херберт Маршалл, Реджинальд Оуэн

Перевод: Любительский (одноголосый)+оригинал
Субтитры: Отсутствуют

Описание:
Профессор Самюэль Фергюссон на воздушном шаре собственной конструкции, по просьбе Королевы Англии, совершает путешествие в неизведанную область Африки. Ему необходимо опередить работорговцев и проделать весь путь за пять недель. В пути профессора и его спутников ждут как забавные, так и опасные приключения…


Дополнительно:
Рейтинг MPAA: ▼
Рейтинг PG - Рекомендуется присутствие родителей



MediaInfo ▼Text
Общее
Полное имя :M:ФильмыРАЗДАЧАПять недель на воздушном шареpjatj_nedelj_na_vozdushnom_sharepjatj_nedelj_na_vozdushnom_share.avi
Формат :AVI
Размер :1.52 GiB
Продолжительность :01:37:22.880
Общий поток :2 235 Kbps
Программа кодирования :VirtualDubModRus 1.5.10.2 (build 2540/release) VirtualDubMod build 2540/release

Видео
Идентификатор :0
Формат :MPEG-4 Visual
Параметр BVOP формата :Yes
Параметр Qpel формата :No
Параметр GMC формата :0
Параметр Matrix формата :Default (H.263)
Идентификатор кодека :DX50
Продолжительность :1h 37mn 22s 880ms
Битрейт :1 900 Kbps
Ширина :720 pixels
Высота :304 pixels
Соотношение сторон :2.368
Частота кадров :25.000 fps
Глубина цвета :8 bits
Подвыборка цветности :4:2:0
Цветовое пространство :YUV
Тип развертки :Progressive
Бит/(Пиксели*Кадры) :0.347
Размер потока :1.29 GiB (85%)
Библиотека кодирования :DivX503b2816p

Аудио #1
Идентификатор :1
Формат :MPEG Audio
Идентификатор кодека :55
Продолжительность :01:37:22.872
Вид битрейта :Constant
Битрейт :128 Kbps
Канал(ы) :2 channels
Частота :48.0 KHz
Метод сжатия :Lossy
Размер потока :89.2 MiB (6%)
Язык
23f9e98bd6adba7da9b7e416ada53ebfd95f9c6eПять недель на воздушном шаре / Five Weeks in a Balloon (Ирвин Аллен, мелодрама, комедия, приключения, 1962) [DVDRip, Любительский (одноголосый)+оригинал] Пять недель на воздушном шаре / Five Weeks in a Balloon (Ирвин Аллен, мелодрама, комедия, приключения, 1962) [DVDRip, Любительский (одноголосый)+оригинал] " />

Аплоадер: Админ, дата: 25-01-2012, 23:00, торрент скачан: 359 раз

Понравилась раздача? Посмотрите эти:
  • Воздыхатель / Le soupirant (Пьер Этекс, комедия, 1962) [DVDRip, Профессиона ...
  • Сингапур / Singapore (Джон Брам, боевик, мелодрама, криминал, приключения, ...
  • Пленники болот / Lure of the Wilderness (Жан Негулеско, драма, мелодрама, п ...
  • К востоку от рая / East of Eden (Элиа Казан, драма, мелодрама, 1955) [DVDRi ...
  • Николай Гринько - За облаками или Удивительные путешествия на воздушном шар ...
  • Однажды на матрасе / Once Upon a Mattress (Кэтлин Маршалл, мюзикл, мелодрам ...
  • Риф Донована / Donovans Reef (Джон Форд, мелодрама, комедия, 1963) [DVDRip, ...
  • Путешествие на дно моря / Voyage to the Bottom of the Sea (Ирвин Аллен / I ...
  • Путешествие на дно моря / Voyage to the Bottom of the Sea (Ирвин Аллен / I ...
  • Таинственный остров (Эдуард Пенцлин, фантастика, приключения, семейный, 194 ...
  • Преждевременное погребение / Premature Burial (Роджер Корман, ужасы, драма, ...
  • 20000 лье под водой / 20000 Leagues Under the Sea (Стюарт Патон, фантастика ...
  • Елка / На Воздушном Шаре [2011, Pop, WebRip]
  • Таинственный остров / Остров приключений / Mysterious Island (Сай Эндфилд, ...
  • Как выйти замуж за миллионера / How to Marry a Millionaire (Жан Негулеско, ...
  • Лизелотта из Пфальца / Liselotte von der Pfalz (Курт Хофманн, мелодрама, ко ...
  • Путешествие на Луну / Le Voyage dans la Lune (Жорж Мельес, короткометражка, ...
  • 9 1/2 недель / Девять с половиной недель / Nine 1/2 Weeks (Эдриан Лайн, дра ...
  • Зелиг / Zelig (Вуди Аллен, фэнтези, комедия, 1983) [DVDRip, Авторский (одно ...
  • Банда подлецов / Un branco di vigliacchi (Фабрицио Таглиони, военный, 1962) ...
  • Розенкранц и Гильденштерн мертвы / Rosencrantz & Guildenstern Are Dead (Том ...
  • Калифорнийский отель / California Suite (Херберт Росс, мелодрама, комедия, ...
  • Урок любви / En lektion i karlek (Ингмар Бергман, драма, комедия, 1954) [DV ...
  • Как раздражать людей / How to Irritate People (Йен Фордайсе, комедия, 1969) ...
  • Человек диких прерий / Man in the Wilderness (Ричард С. Сарафьян, приключен ...
  • Информация
    Посетители, находящиеся в группе Гости, не могут оставлять комментарии к данной публикации.