вход на сайт

Имя пользователя :
Пароль :

Восстановление пароля Регистрация
Бравый солдат Швейк / Dobry vojak Svejk (Карел Стеклы, комедия, военный, 1957) [DVDRip, Профессиональный (полное дублирование)]
Рейтинг:
(голосов: 1)



[img]{THEME}/images/logopost.png[/img]



Бравый солдат Швейк / Dobry vojak Svejk

Год выпуска: 1957
Страна: Чехия
Производство: Filmovй Studio Barrandov
Жанр: комедия, военный

Режиссёр: Карел Стеклы
В ролях: Рудольф Грушински , Милош Копецкий , Святоплюк Бенес , Франтишек Филиповский , Бозена Хавликова , Джозеф Хиномац

Перевод: Профессиональный (полное дублирование)
Субтитры: Отсутствуют

Описание:
Экранизация романа Ярослава Гашека «Похождения бравого солдата Швейка».


Дополнительно:
MediaInfo ▼Text
Общее
Полное имя :D:РаздачаБравый солдат ШвейкBraviy_soldat_Shveik.avi
Формат :AVI
Размер :700 MiB
Продолжительность :01:31:13.040
Общий поток :1 073 Kbps

Видео
Идентификатор :0
Формат :MPEG-4 Visual
Профиль формата :Advanced [email protected]
Параметр BVOP формата :1
Параметр Qpel формата :No
Параметр GMC формата :0
Параметр Matrix формата :Default (MPEG)
Идентификатор кодека :XVID
Продолжительность :1h 31mn 13s 40ms
Битрейт :968 Kbps
Ширина :576 pixels
Высота :432 pixels
Соотношение сторон :1.333
Частота кадров :25.000 fps
Глубина цвета :8 bits
Подвыборка цветности :4:2:0
Цветовое пространство :YUV
Тип развертки :Progressive
Бит/(Пиксели*Кадры) :0.156
Размер потока :631 MiB (90%)
Библиотека кодирования :XviD0047

Аудио #1
Идентификатор :1
Формат :MPEG Audio
Идентификатор кодека :55
Продолжительность :01:31:13.032
Вид битрейта :Constant
Битрейт :96.0 Kbps
Канал(ы) :2 channels
Частота :48.0 KHz
Метод сжатия :Lossy
Размер потока :62.6 MiB (9%)
Язык :5 / @5Тех. данные:
Качество:DVDRip
Продолжительность:01:31:10 час

Формат: AVI
Видео кодек: XviD
Аудио кодек: MPA1L3
Видео: 576 x 432 (4:3), 25.000 fps, 968 Kbps, 0.156 bit/pixel
Аудио : 48.0 KHz, , 2 channels (), 96.0 Kbps



95f70a3d1587693a60e3c307bf0950751348bd81Бравый солдат Швейк / Dobry vojak Svejk (Карел Стеклы, комедия, военный, 1957) [DVDRip, Профессиональный (полное дублирование)] Бравый солдат Швейк / Dobry vojak Svejk (Карел Стеклы, комедия, военный, 1957) [DVDRip, Профессиональный (полное дублирование)] " />

Аплоадер: Админ, дата: 3-01-2012, 22:57, торрент скачан: 359 раз

Понравилась раздача? Посмотрите эти:
  • Летят журавли (Михаил Калатозов, драма, мелодрама, военный, 1957) [DVDRip, ...
  • Сапоги (Владимир Немоляев, короткометражка, драма, комедия, 1957) [DVDRip, ...
  • Диверсанты / The Demolition Squad (Хайрудин Крвавац, военный, 1967) [DVDRip ...
  • Жизнь и необычайные приключения солдата Ивана Чонкина (Иржи Менцель, мелодр ...
  • Лимонадный Джо / Limonadovy Joe aneb Konska opera (Ольдржих Липский, мюзикл ...
  • Соло для слона с оркестром (2 части из 2) (Ольдржих Липский, комедия, семей ...
  • Пропавшая грамота (Борис Ивченко, фэнтези, комедия, 1972) [DVDRip, Професси ...
  • Удача (Баадур Цуладзе, короткометражка, комедия, 1980) [TVRip, Профессионал ...
  • Солдат и слон (Дмитрий Кесаянц, комедия, военный, 1977) [DVDRip, Не требует ...
  • Тихий Дон (3 части из 3) (Сергей Герасимов, драма, военный, 1957) [DVDRip, ...
  • Попугай, говорящий на идиш (Эфраим Севела, драма, комедия, приключения, вое ...
  • Швейк на фронте / Poslusne hlasim (Карел Стеклы, комедия, военный, 1957) [D ...
  • Бог знает, мистер Аллисон / Heaven Knows, Mr. Allison (Джон Хьюстон, боевик ...
  • Пассажирка / Pasazerka (Анджей Мунк, Витольд Лесевич, драма, военный, истор ...
  • Приключения канонира Доласа 2 / Jak rozpetalem druga wojne swiatowa (Тадеуш ...
  • Экспериментатор / Slunce, seno, jahody (Зденек Трошка, Комедия, 1984) [DVDR ...
  • Где генерал? / Gdzie jest general… (Тадеуш Хмелевский, комедия, военный, 19 ...
  • Братья по крови / Blutsbruder (Вернер В. Валльрот, драма, вестерн, 1975) [D ...
  • Девичий заговор / Rzeczpospolita babska (Хероним Пшибыл, комедия, 1969) [DV ...
  • Скандал в Клошмерле / Clochemerle (Пьер Шеналь, комедия, 1948) [DVDRip, Про ...
  • Информация
    Посетители, находящиеся в группе Гости, не могут оставлять комментарии к данной публикации.