вход на сайт

Имя пользователя :
Пароль :

Восстановление пароля Регистрация
Акулы и мелкие рыбешки / Haie und kleine Fische (Франк Висбар, драма, военный, 1957) [DVDRip, Авторский (Гоблинa), Юрий Живов]
Рейтинг:
(голосов: 1)



[img]{THEME}/images/logopost.png[/img]



Акулы и мелкие рыбешки / Haie und kleine Fische

Год выпуска: 1957
Страна: Германия
Производство: Zeyn-Severin
Жанр: драма, военный

Режиссёр: Франк Висбар
В ролях: Хансьёрг Фельми, Вольфган Прейсс, Хорст Фрэнк, Сабина Бетман, Хайнц Энгельманн, Зигфрид Луитц, Зигфрид Ловиц, Рейнгольд Брандес, Дирк Дуйзенберг, Томас Браут, Хорст Фассел.

Перевод: Авторский (Гоблинa), Юрий Живов
Субтитры: Отсутствуют

Описание:
В 1940 году четверо выпускников морской кадетской школы поступают на службу в подводный флот Кригсмарине. Но только один переживет всех остальных… так как начинается Вторая Мировая война. Наглядно показана стратегия и тактика ведения морского боя, жестокости подводной войны.


Дополнительно:
MediaInfo ▼Text
Общее
Полное имя :D:РаздачаАкулы и мелкие рыбешкиakuly_i_melkie_rubeshki.avi
Формат :AVI
Размер :1.37 GiB
Продолжительность :01:59:43.936
Общий поток :1 635 Kbps
Программа кодирования :VirtualDubModRus 1.5.10.2 (build 2542/release)
Библиотека кодирования :VirtualDubMod build 2542/release

Видео
Идентификатор :0
Формат :MPEG-4 Visual
Параметр BVOP формата :Yes
Параметр Qpel формата :No
Параметр GMC формата :0
Параметр Matrix формата :Default (H.263)
Идентификатор кодека :DX50
Продолжительность :1h 59mn 43s 936ms
Битрейт :1 434 Kbps
Ширина :640 pixels
Высота :480 pixels
Соотношение сторон :1.333
Частота кадров :23.976 fps
Глубина цвета :8 bits
Подвыборка цветности :4:2:0
Цветовое пространство :YUV
Тип развертки :Progressive
Бит/(Пиксели*Кадры) :0.195
Размер потока :1.20 GiB (88%)
Библиотека кодирования :DivX503b1263p

Аудио #1
Идентификатор :1
Формат :MPEG Audio
Идентификатор кодека :55
Продолжительность :01:59:43.536
Вид битрейта :Constant
Битрейт :192 Kbps
Канал(ы) :2 channels
Частота :48.0 KHz
Метод сжатия :Lossy
Размер потока :164 MiB (12%)Тех. данные:
Качество:DVDRip
Продолжительность:01:59:46 час

Формат: AVI
Видео кодек: DivX
Аудио кодек: &nb
c94d27e0e8e61941fdb311e9fc82cff851ed61d2Акулы и мелкие рыбешки / Haie und kleine Fische (Франк Висбар, драма, военный, 1957) [DVDRip, Авторский (Гоблинa), Юрий Живов] Акулы и мелкие рыбешки / Haie und kleine Fische (Франк Висбар, драма, военный, 1957) [DVDRip, Авторский (Гоблинa), Юрий Живов] " />

Аплоадер: Админ, дата: 3-01-2012, 22:39, торрент скачан: 359 раз

Понравилась раздача? Посмотрите эти:
  • Жаворонок (Никита Курихин, Леонид Менакер, драма, военный, 1964) [DVDRip, Н ...
  • Борец и клоун (Борис Барнет, Константин Юдин, драма, спорт, 1957) [DVDRip, ...
  • "Мерседес" уходит от погони (Юрий Ляшенко, военный, 1980) [DVDRip, Не требу ...
  • Летят журавли (Михаил Калатозов, драма, мелодрама, военный, 1957) [DVDRip, ...
  • Завтра была война (Юрий Кара, драма, семейный, военный, 1987) [DVDRip, Не т ...
  • Девушка без адреса (Эльдар Рязанов, мелодрама, комедия, 1957) [DVDRip, Не т ...
  • Дама с собачкой (Иосиф Хейфиц, драма, мелодрама, 1959) [DVDRip, Не требуетс ...
  • Эзоп (Олег Рябоконь, драма, история, 1981) [DVDRip, Не требуется]
  • Четвертый (Александр Столпер, драма, 1972) [DVDRip, Не требуется]
  • Сапоги (Владимир Немоляев, короткометражка, драма, комедия, 1957) [DVDRip, ...
  • Оптимистическая трагедия (Самсон Самсонов, драма, военный, история, 1963) [ ...
  • На графских развалинах (Владимир Скуйбин, приключения, семейный, 1957) [DVD ...
  • Комиссар (Александр Аскольдов, драма, военный, 1967) [DVDRip, Не требуется] ...
  • Рядом с нами (Адольф Бергункер, драма, 1957) [DVDRip, Не требуется]
  • Чайка (Юлий Карасик, драма, 1972) [DVDRip, Не требуется]
  • Тихий Дон (3 части из 3) (Сергей Герасимов, драма, военный, 1957) [DVDRip, ...
  • Пуск торпеды / Torpedo Run (Джозеф Пивни, драма, военный, 1958) [DVDRip, Ав ...
  • Подпольный обком действует (4 части из 4) (Анатолий Буковский, военный, 197 ...
  • В лесах под Ковелем (3 части из 3) (Юрий Тупицкий, военный, история, 1984) ...
  • Красавица Мемфиса / Memphis Belle (Майкл Кейтон-Джонс, боевик, драма, военн ...
  • Бог знает, мистер Аллисон / Heaven Knows, Mr. Allison (Джон Хьюстон, боевик ...
  • Звезда Африки / Der Stern von Afrika (Альфред Вайденманн, драма, военный, 1 ...
  • Болотные солдаты (Александр Мачерет, драма, военный, 1938) [DVDRip, Не треб ...
  • К Черному морю (Андрей Тутышкин, мелодрама, комедия, 1957) [DVDRip, Не треб ...
  • За облаками – небо (Юрий Егоров, драма, 1973) [DVDRip, Не требуется]
  • Информация
    Посетители, находящиеся в группе Гости, не могут оставлять комментарии к данной публикации.