вход на сайт

Имя пользователя :
Пароль :

Восстановление пароля Регистрация
Двое на дороге / Two For the Road (Стенли Донен, драма, мелодрама, комедия, 1967) [DVDRip, Профессиональный (двухголосый)]
Рейтинг:
(голосов: 1)



[img]{THEME}/images/logopost.png[/img]





Двое на дороге / Two For the Road

Год выпуска: 1967
Страна: Великобритания
Производство: Stanley Donen Films
Жанр: драма, мелодрама, комедия

Режиссёр: Стенли Донен
В ролях: Одри Хепберн, Альберт Финни,Элинор Брон, Уильям Дэниелс ,Гэбриэлль Миддлтон, Клод Дофен, Надя Грей ,Жорж Декриер, Жаклин Биссет ,Джуди Корнвэлл

Перевод: Профессиональный (двухголосый)
Субтитры: Отсутствуют

Описание:
Переживающие кризис супружеской жизни, Марк и Джоанна Уоллес отправляются отдохнуть на французскую Ривьеру, место их знакомства. Будучи студентом, Марк, изучавший памятники европейской архитектуры, встретился там с весёлой компанией девушек-музыкантов.

Вначале Марк «запал» на Джекки, но затем переключился на Джоанну… Уже поженившись, они ещё не раз совершали поездки по Европе, и каждый раз их брак подвергался испытаниям на прочность. Нынешнее путешествие помогает им понять, что, сколько бы они ни ссорились и какие бы серьезные причины не говорили в пользу развода, они все ёще очень любят друг друга…


Дополнительно:
MediaInfo ▼Text
Общее
Полное имя :D:РаздачаДвое на дорогеDvoe_na_doroge.avi
Формат :AVI
Размер :1.45 GiB
Продолжительность :01:51:00.240
Общий поток :1 870 Kbps

Видео
Идентификатор :0
Формат :MPEG-4 Visual
Параметр BVOP формата :1
Параметр Qpel формата :No
Параметр GMC формата :0
Параметр Matrix формата :Default (H.263)
Идентификатор кодека :DX50
Продолжительность :1h 51mn 0s 154ms
Битрейт :1 664 Kbps
Ширина :704 pixels
Высота :274 pixels
Соотношение сторон :2.569
Частота кадров :29.970 fps
Глубина цвета :8 bits
Подвыборка цветности :4:2:0
Цветовое пространство :YUV
Тип развертки :Progressive
Бит/(Пиксели*Кадры) :0.288
Размер потока :1.29 GiB (89%)
Библиотека кодирования :DivX503b1988p

Аудио #1
Идентификатор :1
Формат :MPEG Audio
Идентификатор кодека :55
Продолжительность :01:51:00.240
Вид битрейта :Constant
Битрейт :192 Kbps
Канал(ы) :2 channels
Частота :48.0 KHz
Метод сжатия :Lossy
Размер потока :152 MiB (10%)Тех. данные:
Кач
99e914fac9742764b781e6f75a17bc3fd6ed158eДвое на дороге / Two For the Road (Стенли Донен, драма, мелодрама, комедия, 1967) [DVDRip, Профессиональный (двухголосый)] Двое на дороге / Two For the Road (Стенли Донен, драма, мелодрама, комедия, 1967) [DVDRip, Профессиональный (двухголосый)] " />

Аплоадер: Админ, дата: 12-12-2011, 09:38, торрент скачан: 359 раз

Понравилась раздача? Посмотрите эти:
  • Маленький принц / The Little Prince (Стенли Донен, мюзикл, фантастика, фэнт ...
  • Поездка в Америку / Coming to America (Джон Лэндис, драма, мелодрама, комед ...
  • На Золотом пруду / On Golden Pond (Марк Райделл, Драма, мелодрама, 1981) [D ...
  • Однажды на матрасе / Once Upon a Mattress (Кэтлин Маршалл, мюзикл, мелодрам ...
  • Поющие под дождем / Singin in the Rain (Стенли Донен, Джин Келли, комедия, ...
  • Выпускник / The Graduate (Майк Николс, драма, мелодрама, комедия, 1967) [DV ...
  • Во всем виноват Рио / Blame It on Rio (Стенли Донен, мелодрама, комедия,198 ...
  • Сладкая жизнь / La dolce vita (Федерико Феллини, драма, комедия, 1959) [DVD ...
  • Морской волк (4 части из 4) (Игорь Апасян, драма, мелодрама, приключения, 1 ...
  • С террасы / From the Terrace (Марк Робсон, драма, мелодрама, 1960) [DVDRip, ...
  • Забавная мордашка / Funny Face (Стенли Донен, комедия, 1957) [BDRip 1080p, ...
  • Шарада / Charade (Стенли Донен, триллер, комедия, мелодрама, детектив, 1963 ...
  • Я вас любил... (Илья Фрэз, мелодрама, комедия, 1967) [DVDRip, Не требуется] ...
  • Как украсть миллион / How to steal a million (Уильям Уайлер, комедия, крими ...
  • Забавная мордашка / Funny Face (Стенли Донен, мюзикл, мелодрама, комедия, 1 ...
  • Жить, чтобы жить / Vivre Pour Vivre (Клод Лелуш, драма, 1967) [DVDRip, Проф ...
  • Шарада / Charade (Стенли Донен, комедия, детектив, мелодрама, 1963) [DVDRip ...
  • Укрощение строптивой / The Taming of the Shrew (Франко Дзеффирелли, комедия ...
  • Любовь после полудня / Love in the afternoon (Билли Уайлдер, комедия, драма ...
  • Лето с Моникой / Sommaren med Monika (Ингмар Бергман, драма, мелодрама, 195 ...
  • Наследница / The Heiress (Уильям Уайлер, драма, мелодрама, 1949) [DVDRip, П ...
  • Принцесса Клевская / La princesse de Cleves (Жан Деланнуа, драма, мелодрама ...
  • Вдова Кудер / La veuve Couderc (Пьер Гранье-Дефер, боевик, драма, мелодрама ...
  • Уик-энд / Week End (Жан-Люк Годар, драма, комедия, 1967) [DVDRip, Профессио ...
  • Убей! / Kiru (Кихачи Окамото, боевик, драма, комедия, 1968) [DVDRip, Профес ...
  • Информация
    Посетители, находящиеся в группе Гости, не могут оставлять комментарии к данной публикации.