вход на сайт

Имя пользователя :
Пароль :

Восстановление пароля Регистрация
Свидетель обвинения / Witness for the Prosecution (Билли Уайлдер, триллер, драма, криминал, детектив, 1957) [DVDRip, Профессиональный (многоголосый, закадровый)]
Рейтинг:
(голосов: 1)



[img]{THEME}/images/logopost.png[/img]



Свидетель обвинения / Witness for the Prosecution

Год выпуска: 1957
Страна: США
Производство: Edward Small Productions
Жанр: триллер, драма, криминал, детектив

Режиссёр: Билли Уайлдер
В ролях: Тайрон Пауэр, Марлен Дитрих, Чарльз Лотон, Эльза Ланчестер, Джон Уильямс, Генри Дэниелл, Йен Вульф, Торин Тэтчер, Норма Варден

Перевод: Профессиональный (многоголосый, закадровый)
Субтитры: Отсутствуют

Описание:
Сэру Уилфриду Робэртсу, престарелому адвокату, бережно опекаемому медсестрой мисс Плимсолл, поступает предложение защищать интересы Леонарда Стивена Воула, которому инкриминируется убийство. В невиновности подопечного его убеждает искренность чувств красивой женщины — Кристин Воул, в девичестве Хелм, и многоопытный юрист берётся за дело.


Дополнительно:
MediaInfo ▼Text
Общее
Полное имя :K:РАЗДАЧАСвидетель обвиненияsvidetel_obvinenija.avi
Формат :AVI
Размер :744 MiB
Продолжительность :01:56:15.888
Общий поток :895 Kbps
Программа кодирования :VirtualDubMod 1.5.10.2 (build 2540/release)
Библиотека кодирования :VirtualDubMod build 2540/release

Видео
Идентификатор :0
Формат :MPEG-4 Visual
Профиль формата :Advanced [email protected]
Параметр BVOP формата :1
Параметр Qpel формата :No
Параметр GMC формата :0
Параметр Matrix формата :Custom
Идентификатор кодека :XVID
Продолжительность :1h 56mn 15s 886ms
Битрейт :757 Kbps
Ширина :624 pixels
Высота :384 pixels
Соотношение сторон :1.625
Частота кадров :23.976 fps
Глубина цвета :8 bits
Подвыборка цветности :4:2:0
Цветовое пространство :YUV
Тип развертки :Progressive
Бит/(Пиксели*Кадры) :0.132
Размер потока :630 MiB (85%)
Библиотека кодирования :XviD0050

Аудио #1
Идентификатор :1
Формат :MPEG Audio
Идентификатор кодека :55
Продолжительность :01:56:15.888
Вид битрейта :Constant
Битрейт :128 Kbps
Канал(ы) :2 channels
Частота :48.0 KHz
Метод сжатия :Lossy
Размер потока :106 MiB (14%)Тех. данные:
Качест
2f49679805c847c1e0e3fa31abe251bf3f5c8feeСвидетель обвинения / Witness for the Prosecution (Билли Уайлдер, триллер, драма, криминал, детектив, 1957) [DVDRip, Профессиональный (многоголосый, закадровый)] Свидетель обвинения / Witness for the Prosecution (Билли Уайлдер, триллер, драма, криминал, детектив, 1957) [DVDRip, Профессиональный (многоголосый, закадровый)] " />

Аплоадер: Админ, дата: 25-11-2011, 16:53, торрент скачан: 359 раз

Понравилась раздача? Посмотрите эти:
  • Двойная страховка / Double Indemnity (Билли Уайлдер, фильм-нуар, триллер, д ...
  • В 3:10 на Юму / 3:10 to Yuma (Дэлмер Дэйвс, триллер, драма, вестерн, 1957) ...
  • Парни в синей форме / Electra Glide in Blue (Джеймс Уильям Гуерсио, триллер ...
  • Частная жизнь Шерлока Холмса / The Private Life of Sherlock Holmes (Билли У ...
  • Свидетель обвинения / Witness for the Prosecution (Билли Уайлдер, драма, де ...
  • Обвинённая в 17 / Accused at 17 (Даг Кэмпбелл,триллер, драма, криминал, дет ...
  • Азарт удачи / The Fortune Cookie (Билли Уайлдер, мелодрама, комедия, 1966) ...
  • Карманник / Pickpocket (Робер Брессон, триллер, драма, криминал, 1959) [DVD ...
  • Вождь краснокожих и другие / O.Henrys Full House (Генри Хэтэуэй, Ховард Хоу ...
  • Час свиньи / The Hour of the Pig (Лесли Мегахи, Драма, история, криминал, д ...
  • Саботаж / Sabotage (Альфред Хичкок, триллер, детектив, 1936) [DVDRip, Профе ...
  • Информаторы / The Informers (Грегор Джордан, триллер, драма, криминал, 2008 ...
  • Дуэль / Duel (Стивен Спилберг, триллер, детектив, 1971) [DVDRip, Профессион ...
  • Пэйтон Плейс / Peyton Place (Марк Робсон, драма, мелодрама, 1957) [DVDRip, ...
  • Любовь после полудня / Love in the afternoon (Билли Уайлдер, комедия, драма ...
  • Квадрофения / Quadrophenia (Фрэнк Роддэм, драма, криминал, музыка, 1979) [H ...
  • Бартон Финк / Barton Fink (Джоэл Коэн, Итэн Коэн, триллер, драма, детектив, ...
  • Бог знает, мистер Аллисон / Heaven Knows, Mr. Allison (Джон Хьюстон, боевик ...
  • Конвейер / Blue Collar (Пол Шредер, драма, криминал, 1977) [DVDRip, Професс ...
  • Потерянный уик-энд / The Lost weekend (Билли Уайлдер , драма, фильм-нуар, 1 ...
  • Джек-потрошитель / Jack the Ripper (2 части из 2) (Дэвид Уикс, триллер, дра ...
  • Долгая Страстная пятница / The Long Good Friday (Джон Маккензи, триллер, др ...
  • Дикие дни / A Fei jingjyuhn (Вонг Кар-Вай, драма, мелодрама, криминал, 1990 ...
  • Чужестранец / The Stranger (Орсон Уэллс, фильм-нуар, триллер, драма, кримин ...
  • Авария / Breakdown (Джонатан Мостоу, боевик, триллер, драма, криминал, дете ...
  • Информация
    Посетители, находящиеся в группе Гости, не могут оставлять комментарии к данной публикации.