вход на сайт

Имя пользователя :
Пароль :

Восстановление пароля Регистрация
Неприятности с Гарри / The Trouble with Harry (Альфред Хичкок, комедия, триллер, детектив, 1955) [DVDRip, Профессиональный (многоголосый, закадровый)]
Рейтинг:
(голосов: 1)



[img]{THEME}/images/logopost.png[/img]



Неприятности с Гарри / The Trouble with Harry

Год выпуска: 1955
Страна: США
Производство: Alfred J. Hitchcock Productions, Paramount Pictures
Жанр: комедия, триллер, детектив

Режиссёр: Альфред Хичкок
В ролях: Эдмунд Гвенн, Джон Форсайт, Милдред Нэтвик, Милдред Даннок, Джерри Мэзерс, Ройал Дэно, Паркер Феннелли, Бэрри Мэколлам, Дуайт Марфилд, Ширли МакЛейн

Перевод: Профессиональный (многоголосый, закадровый)
Субтитры: Отсутствуют

Описание:
Комедия о беспокойном… трупе, который создает множество умопомрачительных проблем для мирных соседей в Новой Англии. Да, человека убили, соседям это не нравится. Хичкоку удается сделать это не свойственной для него, блистательной комедией.


Дополнительно:
Рейтинг MPAA: ▼
Рейтинг PG - Рекомендуется присутствие родителей



MediaInfo ▼Text
Общее
Полное имя :K:РАЗДАЧАНеприятности с Гарри
epriytnosti_s_garri.avi
Формат :AVI
Размер :1.37 GiB
Продолжительность :01:35:18.360
Общий поток :2 054 Kbps
Программа кодирования :VirtualDubMod 1.5.4.1 (build 2178/release)
Библиотека кодирования :VirtualDubMod build 2178/release

Видео
Идентификатор :0
Формат :MPEG-4 Visual
Профиль формата :Advanced [email protected]
Параметр BVOP формата :1
Параметр Qpel формата :No
Параметр GMC формата :0
Параметр Matrix формата :Custom
Идентификатор кодека :XVID
Продолжительность :1h 35mn 18s 360ms
Битрейт :1 857 Kbps
Ширина :720 pixels
Высота :400 pixels
Соотношение сторон :1.800
Частота кадров :25.000 fps
Глубина цвета :8 bits
Подвыборка цветности :4:2:0
Цветовое пространство :YUV
Тип развертки :Progressive
Бит/(Пиксели*Кадры) :0.258
Размер потока :1.24 GiB (90%)
Библиотека кодирования :XviD0047

Аудио #1
Идентификатор :1
Формат :MPEG Audio
Идентификатор кодека :55
Продолжительность :01:35:18.360
Вид битрейта :Variable
Битрейт :192 Kbps
Канал(ы) :2 channels
Частота :48.0 KHz
Метод сжатия :Lossy
Размер потока :125 MiB (9%)
Язык
59599c1cb6b73d98f6afa8baa3f7f516554ecd1bНеприятности с Гарри / The Trouble with Harry (Альфред Хичкок, комедия, триллер, детектив, 1955) [DVDRip, Профессиональный (многоголосый, закадровый)] Неприятности с Гарри / The Trouble with Harry (Альфред Хичкок, комедия, триллер, детектив, 1955) [DVDRip, Профессиональный (многоголосый, закадровый)] " />

Аплоадер: Админ, дата: 17-11-2011, 01:48, торрент скачан: 359 раз

Понравилась раздача? Посмотрите эти:
  • Молодой и невинный / Young and Innocent (Альфред Хичкок, триллер, криминал, ...
  • Человек, который слишком много знал / The Man Who Knew Too Much (Альфред Хи ...
  • Гарри-карманник / Harry in Your Pocket (Брюс Геллер, драма, комедия, кримин ...
  • Топаз / Topaz (Альфред Хичкок, шпионский детектив, триллер, 1969) [BDRip, П ...
  • Неприятности с Гарри / The Trouble with Harry (Альфред Хичкок, черная комед ...
  • Птицы / The Birds (Альфред Хичкок, ужасы, триллер, 1963) [BDRip, 2x Професс ...
  • 39 ступеней / The 39 Steps (Альфред Хичкок, Триллер, детектив, 1935) [DVDRi ...
  • Поймать вора / To Catch a Thief (Альфред Хичкок, Детектив, комедия, 1955) [ ...
  • Эй! В моем супе девушка / Theres a Girl in My Soup (Рой Боултинг, комедия, ...
  • Кто такой Гарри Крамб? / Whos Harry Crumb? (Пол Флаэрти, Комедия, криминал, ...
  • Поймать вора / To Catch a Thief (Альфред Хичкок, триллер, мелодрама, кримин ...
  • Неприятности с Гарри / The Trouble with Harry (Альфред Хичкок, триллер, ком ...
  • Улика / Clue (Джонатан Линн, триллер, комедия, криминал, детектив, 1985) [D ...
  • Саботаж / Sabotage (Альфред Хичкок, триллер, детектив, 1936) [DVDRip, Профе ...
  • 39 ступеней / The 39 Steps (Альфред Хичкок, триллер, комедия, детектив, 193 ...
  • Головокружение / Vertigo (Альфред Хичкок, Триллер, 1958) [HDTVRip, Професси ...
  • Дуэль / Duel (Стивен Спилберг, триллер, детектив, 1971) [DVDRip, Профессион ...
  • Под знаком Козерога / Under Capricorn (Альфред Хичкок, драма, мелодрама, 19 ...
  • Солдат удачи / Soldier of Fortune (Эдвард Дмитрык, приключения, драма, 1955 ...
  • Консьерж / For Love or Money (Барри Зонненфельд, Мелодрама, комедия, 1993) ...
  • Подержанные автомобили / Used Cars (Роберт Земекис, комедия, 1980) [DVDRip, ...
  • Повышение / The Promotion (Стив Конрад, Комедия, 2008) [DVDRip, Профессиона ...
  • Улыбки летней ночи / Sommarnattens leende (Ингмар Бергман, мелодрама, комед ...
  • Человек с Востока / E poi lo chiamarono il magnifico (Энцо Барбони, боевик, ...
  • Влюбленный гастролер / Sweet talker (Майкл Дженкинс, Комедия, 1991) [DVDRip ...
  • Информация
    Посетители, находящиеся в группе Гости, не могут оставлять комментарии к данной публикации.