вход на сайт

Имя пользователя :
Пароль :

Восстановление пароля Регистрация
Вальсирующие / Les valseuses (Бертран Блие, драма, комедия, криминал, 1966) [DVDRip, Профессиональный (многоголосый, закадровый)]
Рейтинг:
(голосов: 1)



[img]{THEME}/images/logopost.png[/img]



Вальсирующие / Les valseuses

Год выпуска: 1966
Страна: Франция
Производство: C.A.P.A.C., Sociйtй Nouvelle Prodis, UPF (Universal Pictures France)
Жанр: драма, комедия, криминал

Режиссёр: Бертран Блие
В ролях: Жерар Депардье, Патрик Девэр, Миу-Миу, Жанна Моро, Брижит Фоссе, Кристиан Алер

Перевод: Профессиональный (многоголосый, закадровый)
Субтитры: Отсутствуют

Описание:
Двое парней изо всех сил корчат из себя крутых. Жизнь без проблем. Нужны деньги — грабеж. Лень ходить пешком — угон. Женщины -. .. А вот с женщинами несколько сложнее.


Дополнительно:
Рейтинг MPAA: ▼
Рейтинг R - Лицам до 17 лет обязательно присутствие взрослого



MediaInfo ▼Text
Общее
Полное имя :J:Кинокопилка.РуРАЗДАЧАВальсирующиеВальсирующие.avi
Формат :AVI
Размер :782 MiB
Продолжительность :01:53:34.040
Общий поток :962 Kbps
Программа кодирования :FairUse Wizard - http://fairusewizard.com
Библиотека кодирования :The best and REALLY easy backup tool

Видео
Идентификатор :0
Формат :MPEG-4 Visual
Профиль формата :Advanced [email protected]
Параметр BVOP формата :1
Параметр Qpel формата :No
Параметр GMC формата :0
Параметр Matrix формата :Default (MPEG)
Идентификатор кодека :XVID
Продолжительность :1h 53mn 34s 40ms
Битрейт :841 Kbps
Ширина :560 pixels
Высота :336 pixels
Соотношение сторон :1.667
Частота кадров :25.000 fps
Глубина цвета :8 bits
Подвыборка цветности :4:2:0
Цветовое пространство :YUV
Тип развертки :Progressive
Бит/(Пиксели*Кадры) :0.179
Размер потока :683 MiB (87%)
Библиотека кодирования :XviD0047

Аудио #1
Идентификатор :1
Формат :MPEG Audio
Идентификатор кодека :55
Продолжительность :01:53:34.032
Вид битрейта :Constant
Битрейт :112 Kbps
Канал(ы) :2 channels
Частота :48.0 KHz
Метод сжатия :Lossy
Размер потока :91.0 MiB (12%)Тех. данные:
Качество:DVDRip
Продолжительность:01:53:30 час

Формат: AVI
Виде
ba2f7888d2564e8cf0b174955c0ef988d1ca3d93Вальсирующие / Les valseuses (Бертран Блие, драма, комедия, криминал, 1966) [DVDRip, Профессиональный (многоголосый, закадровый)] Вальсирующие / Les valseuses (Бертран Блие, драма, комедия, криминал, 1966) [DVDRip, Профессиональный (многоголосый, закадровый)] " />

Аплоадер: Админ, дата: 4-09-2011, 18:00, торрент скачан: 359 раз

Понравилась раздача? Посмотрите эти:
  • Шорох кубиков льда / Le bruit des glacons (Бертран Блие, драма, комедия, 20 ...
  • Вальсирующие / Les Valseuses (Бертран Блие, Драма, комедия, 1974) [BDRip, П ...
  • Вальсирующие / Les Valseuses (Бертран Блие/Жерар Депардьё, комедия, 1974) [ ...
  • Магазинчик за углом / The Shop Around the Corner (Эрнст Любич, драма, мелод ...
  • Сколько ты стоишь? / Combien tu maimes? (Бертран Блие, драма, мелодрама, к ...
  • Садовник из Аржантей / Le jardinier dArgenteuil (Жан-Поль Ле Шануа, комедия ...
  • Слишком красивая для тебя / Trop belle pour toi (Бертран Блие, драма, комед ...
  • Шарло в Испании / Les Charlots font lEspagne (Жан Жиро, комедия, 1972) [DVD ...
  • Вечернее платье / Tenue de soiree (Бертран Блие / Bertrand Blier, Драма, ко ...
  • Удар головой / Coup de tete (Жан-Жак Анно, драма, комедия, спорт, 1978) [DV ...
  • Подмена / Switch (Блейк Эдвардс, фэнтези, комедия, криминал, 1991) [DVDRip, ...
  • Актеры / Les acteurs (Бертран Блие, драма, 2000 г.) [DVDRip, Профессиональ ...
  • Отчим / Beau-pere (Бертран Блие, драма, 1981)[DVDRip, Профессиональный (дв ...
  • Афера / The Sting (Джордж Рой Хилл, комедия, криминал, 1973) [DVDRip, Профе ...
  • Гамбит / Gambit (Рональд Ним, комедия, криминал, 1966) [HDRip, Профессионал ...
  • Укрощение строптивой / The Taming of the Shrew (Франко Дзеффирелли, комедия ...
  • Адела еще не ужинала / Adela jeste nevecerela (Ольдржих Липский, комедия, к ...
  • Квадрофения / Quadrophenia (Фрэнк Роддэм, драма, криминал, музыка, 1979) [H ...
  • Вечернее платье / Tenue de soirйe (Бертран Блие, драма, комедия, криминал, ...
  • День добрый, улыбка! / Bonjour sourire! (Клод Соте, комедия, 1956) [DVDRip, ...
  • Конвейер / Blue Collar (Пол Шредер, драма, криминал, 1977) [DVDRip, Професс ...
  • Свяжи меня / Atame! (Педро Альмодовар, драма, мелодрама, комедия, криминал, ...
  • Повышение / The Promotion (Стив Конрад, Комедия, 2008) [DVDRip, Профессиона ...
  • Школа воров 2 / Scuola di ladri - parte seconda (Нери Паренти, Комедия, 198 ...
  • Достопочтенный джентльмен / The Distinguished Gentleman (Джонатан Линн, Ком ...
  • Информация
    Посетители, находящиеся в группе Гости, не могут оставлять комментарии к данной публикации.