вход на сайт

Имя пользователя :
Пароль :

Восстановление пароля Регистрация
Тысяча и одна ночь / Чудеса Аладдина / The Wonders of Aladdin / Le meraviglie di Aladino (Марио Бава, Генри Левин, фэнтези , 1961) [DVDRip, Профессиональный (многоголосый, закадровый)]
Рейтинг:
(голосов: 1)



[img]{THEME}/images/logopost.png[/img]



Тысяча и одна ночь / Чудеса Аладдина / The Wonders of Aladdin / Le meraviglie di Aladino

Год выпуска: 1961
Страна: США, Франция,Италия
Производство: Compagnie Cinematographique de France, Embassy Pictures Corporation, Lux Film S.p.a.
Жанр: фэнтези

Режиссёр: Марио Бава, Генри Левин
В ролях: Дональд О`Коннор, Теренс Хилл, Ноэль Адам, Витторио Де Сика, Альдо Фабрици, Мишель Мерсье, Луиджи Тоси, Марко Тулли.

Перевод: Профессиональный (многоголосый, закадровый)
Субтитры: Отсутствуют

Описание:
По мотивам арабских сказок из одноименного цикла. Бедный молодой человек находит волшебную лампу и выпускает из нее джина, который дает своему освободителю три желания.


Дополнительно:
MediaInfo ▼Text
Общее
Полное имя :K:РАЗДАЧАТысяча и одна ночьChudesa_Aladdina.avi
Формат :AVI
Размер :1.36 GiB
Продолжительность :01:36:56.480
Общий поток :2 003 Kbps
Программа кодирования :FairUse Wizard - http://fairusewizard.com
Библиотека кодирования :The best and REALLY easy backup tool

Видео
Идентификатор :0
Формат :MPEG-4 Visual
Профиль формата :Advanced [email protected]
Параметр BVOP формата :2
Параметр Qpel формата :No
Параметр GMC формата :0
Параметр Matrix формата :Default (H.263)
Идентификатор кодека :XVID
Продолжительность :1h 36mn 56s 480ms
Битрейт :1 865 Kbps
Ширина :624 pixels
Высота :272 pixels
Соотношение сторон :2.294
Частота кадров :25.000 fps
Глубина цвета :8 bits
Подвыборка цветности :4:2:0
Цветовое пространство :YUV
Тип развертки :Progressive
Бит/(Пиксели*Кадры) :0.440
Размер потока :1.26 GiB (93%)
Библиотека кодирования :XviD0050

Аудио #1
Идентификатор :1
Формат :MPEG Audio
Идентификатор кодека :55
Продолжительность :01:36:56.472
Вид битрейта :Constant
Битрейт :128 Kbps
Канал(ы) :2 channels
Частота :48.0 KHz
Метод сжатия :Lossy
Размер потока :88.8 MiB (6%)Тех. данные:
Качество:DVDRip
Продолжител
5aabff0c500bedf21cbcac929f9a0ada83029ba9Тысяча и одна ночь / Чудеса Аладдина / The Wonders of Aladdin / Le meraviglie di Aladino (Марио Бава, Генри Левин, фэнтези , 1961) [DVDRip, Профессиональный (многоголосый, закадровый)] Тысяча и одна ночь / Чудеса Аладдина / The Wonders of Aladdin / Le meraviglie di Aladino (Марио Бава, Генри Левин, фэнтези , 1961) [DVDRip, Профессиональный (многоголосый, закадровый)] " />

Аплоадер: Админ, дата: 7-08-2011, 02:26, торрент скачан: 359 раз

Понравилась раздача? Посмотрите эти:
  • Привидения по-итальянски / Questi fantasmi (Ренато Кастеллани, фэнтези, ком ...
  • Маленький принц / The Little Prince (Стенли Донен, мюзикл, фантастика, фэнт ...
  • Мы – одна команда / We Are Marshall (Джеми Линден, Кори Хелмс, Драма, спорт ...
  • Капитан из Кастильи / Captain from Castile (Генри Кинг, драма, приключения, ...
  • Магазинчик за углом / The Shop Around the Corner (Эрнст Любич, драма, мелод ...
  • Апач / Apache (Роберт Олдрич, вестерн, 1954) [DVDRip, Профессиональный (мно ...
  • Казанова 70 / Casanova 70 (Марио Моничелли, драма, комедия, 1965) [DVDRip, ...
  • Вождь краснокожих и другие / O.Henrys Full House (Генри Хэтэуэй, Ховард Хоу ...
  • ... и ещё одна ночь Шахерезады / Новые сказки Шахерезады / Последняя ночь Ш ...
  • Геркулес покоряет Атлантиду / Ercole alla conquista di Atlantide (Витторио ...
  • Пусть говорят / Digan lo que digan (Марио Камус, драма, мелодрама, мюзикл, ...
  • Таинственный остров / Остров приключений / Mysterious Island (Сай Эндфилд, ...
  • Вальсирующие / Les valseuses (Бертран Блие, драма, комедия, криминал, 1966) ...
  • Укрощение строптивой / The Taming of the Shrew (Франко Дзеффирелли, комедия ...
  • Неверные / Le infedeli (Марио Моничелли, Стено, драма, комедия, 1953) [DVDR ...
  • День добрый, улыбка! / Bonjour sourire! (Клод Соте, комедия, 1956) [DVDRip, ...
  • К северу от Аляски / North to Alaska (Генри Хэтэуэй, вестерн, комедия, 1960 ...
  • Суперполицейский / Poliziotto superpiu (Серджио Корбуччи, фантастика, фэнте ...
  • Невеста на одну ночь / Moglie per una notte (Марио Камерини, комедия, 1952) ...
  • Школа воров 2 / Scuola di ladri - parte seconda (Нери Паренти, Комедия, 198 ...
  • Информация
    Посетители, находящиеся в группе Гости, не могут оставлять комментарии к данной публикации.