вход на сайт

Имя пользователя :
Пароль :

Восстановление пароля Регистрация
Таинственный остров / Остров приключений / Mysterious Island (Сай Эндфилд, фантастика, фэнтези, приключения, семейный, 1961) [DVDRip, Профессиональный (многоголосый, закадровый)]
Рейтинг:
(голосов: 1)



[img]{THEME}/images/logopost.png[/img]



Таинственный остров / Остров приключений / Mysterious Island

Год выпуска: 1961
Страна: США, Великобритания
Производство: Ameran Films Ltd., Columbia Pictures Corporation
Жанр: фантастика, фэнтези, приключения, семейный

Режиссёр: Сай Эндфилд
В ролях: Майкл Крэйг, Джоан Гринвуд, Майкл Каллэн, Гари Мэрилл, Херберт Лом, Бет Роган, Перси Херберт, Дэн Джексон, Гарри Монти

Перевод: Профессиональный (многоголосый, закадровый)
Субтитры: Отсутствуют

Описание:
Несколько северян спаслись из плена южан на воздушном шаре и попали на необитаемый остров, оказавшийся таинственным — неизвестный доброжелатель постоянно оказывал помощь «робинзонам».


Дополнительно:
MediaInfo ▼Text
Общее
Полное имя :K:РАЗДАЧАТаинственный остров Остров приключенийmysterious_island.avi
Формат :AVI
Размер :745 MiB
Продолжительность :01:36:41.000
Общий поток :1 077 Kbps
Программа кодирования :VirtualDubMod 1.5.10.2 (build 2540/release)
Библиотека кодирования :VirtualDubMod build 2540/release

Видео
Идентификатор :0
Формат :MPEG-4 Visual
Профиль формата :Advanced [email protected]
Параметр BVOP формата :1
Параметр Qpel формата :No
Параметр GMC формата :0
Параметр Matrix формата :Default (MPEG)
Идентификатор кодека :XVID
Продолжительность :1h 36mn 41s 0ms
Битрейт :939 Kbps
Ширина :672 pixels
Высота :368 pixels
Соотношение сторон :1.826
Частота кадров :25.000 fps
Глубина цвета :8 bits
Подвыборка цветности :4:2:0
Цветовое пространство :YUV
Тип развертки :Progressive
Бит/(Пиксели*Кадры) :0.152
Размер потока :650 MiB (87%)
Библиотека кодирования :XviD0050

Аудио #1
Идентификатор :1
Формат :MPEG Audio
Идентификатор кодека :55
Продолжительность :01:36:40.992
Вид битрейта :Constant
Битрейт :128 Kbps
Канал(ы) :2 channels
Частота :48.0 KHz
Метод сжатия :Lossy
Размер потока :88.5 MiB (12%)Тех. данные:
Качество:DVDRip
Продолжительность:01:36:40 час

Ф
cec8dbffde4ef9643a9db9c326ca8fabc35b5fb0Таинственный остров / Остров приключений / Mysterious Island (Сай Эндфилд, фантастика, фэнтези, приключения, семейный, 1961) [DVDRip, Профессиональный (многоголосый, закадровый)] Таинственный остров / Остров приключений / Mysterious Island (Сай Эндфилд, фантастика, фэнтези, приключения, семейный, 1961) [DVDRip, Профессиональный (многоголосый, закадровый)] " />

Аплоадер: Админ, дата: 7-08-2011, 02:18, торрент скачан: 359 раз

Понравилась раздача? Посмотрите эти:
  • Небесный остров / Island in the Sky (Уильям А. Уэллмен, драма, приключения, ...
  • Путешествие 2: Таинственный​ остров / Journey 2: The Mysterious Island (Брэ ...
  • [3D] Путешествие 2: Таинственный остров 3D / Journey 2: The Mysterious Isla ...
  • [3D] Путешествие 2: Таинственный остров 3D / Journey 2: The Mysterious Isla ...
  • Путешествие 2: Таинственный​ остров / Journey 2: The Mysterious Island (Брэ ...
  • Путешествие 2: Таинственный остров / Journey 2: The Mysterious Island (Брэд ...
  • Жюль Верн — Таинственный остров CD1
  • Жюль Верн — Таинственный остров CD2
  • Путешествие 2: Таинственный остров / Journey 2: The Mysterious Island (Брэд ...
  • Путешествие 2: Таинственный​ остров / Journey 2: The Mysterious Island (Брэ ...
  • Таинственный остров (Эдуард Пенцлин, фантастика, приключения, семейный, 194 ...
  • Таинственный остров / La isla misteriosa (Хуан Антонио Бардем, Анри Кольпи, ...
  • [Phone, iPod] Путешествие 2: Таинственный остров / Journey 2: The Mysteriou ...
  • Путешествие 2: Таинственный​ остров / Journey 2: The Mysterious Island (Брэ ...
  • Путешествие 2: Таинственный​ остров / Journey 2: The Mysterious Island (Брэ ...
  • Путешествие 2: Таинственный​ остров / Journey 2: The Mysterious Island (Брэ ...
  • Путешествие 2: Таинственный​ остров / Journey 2: The Mysterious Island (Брэ ...
  • Путешествие 2: Таинственный остров / Journey 2: The Mysterious Island (Брэд ...
  • Путешествие 2: Таинственный остров / Journey 2: The Mysterious Island (Брэд ...
  • Остров сокровищ / Treasure Island (Байрон Хэскин, приключения, семейный, 19 ...
  • Информация
    Посетители, находящиеся в группе Гости, не могут оставлять комментарии к данной публикации.