вход на сайт

Имя пользователя :
Пароль :

Восстановление пароля Регистрация
Смешная девчонка / Funny Girl (Уильям Уайлер , мюзикл, драма, мелодрама, комедия, биография, 1968) [DVDRip, Профессиональный (полное дублирование)+оригинал]
Рейтинг:
(голосов: 1)



[img]{THEME}/images/logopost.png[/img]



Смешная девчонка / Funny Girl

Год выпуска: 1968
Страна: США
Производство: Columbia Pictures Corporation, Rastar Pictures
Жанр: мюзикл, драма, мелодрама, комедия, биография

Режиссёр: Уильям Уайлер
В ролях: Барбра Стрейзанд, Омар Шариф, Кэй Медфорд, Энн Френсис, Уолтер Пиджон, Ли Аллен, Мэй Куэстел, Джералд Мор, Фрэнк Фэйлен

Перевод: Профессиональный (полное дублирование)+оригинал
Субтитры: Отсутствуют

Описание:
На пути к славе и успеху, Фанни Брайс пришлось пройти от гадкого утенка до прекрасного лебедя. На сцене она — звезда, охапки роз падают к ногам, зал взрывается овациями.

Но за эти упоительные, волшебные секунды ей приходится расплачиваться горькими, одинокими ночами, полными слез и ревности.


Дополнительно:
Рейтинг MPAA: ▼
Рейтинг G - Нет возрастных ограничений



MediaInfo ▼Text
Общее
Полное имя :K:РАЗДАЧАСмешная девчонкаsmeshnaya_devchonka.avi
Формат :AVI
Размер :1.97 GiB
Продолжительность :02:28:55.968
Общий поток :1 896 Kbps
Программа кодирования :VirtualDubMod 1.5.4.1 (build 2178/release)
Библиотека кодирования :VirtualDubMod build 2178/release

Видео
Идентификатор :0
Формат :MPEG-4 Visual
Профиль формата :Advanced [email protected]
Параметр BVOP формата :1
Параметр Qpel формата :No
Параметр GMC формата :0
Параметр Matrix формата :Custom
Идентификатор кодека :XVID
Продолжительность :2h 28mn 55s 960ms
Битрейт :1 472 Kbps
Ширина :720 pixels
Высота :304 pixels
Соотношение сторон :2.368
Частота кадров :25.000 fps
Глубина цвета :8 bits
Подвыборка цветности :4:2:0
Цветовое пространство :YUV
Тип развертки :Progressive
Бит/(Пиксели*Кадры) :0.269
Размер потока :1.53 GiB (78%)
Библиотека кодирования :XviD0058

Аудио #1
Идентификатор :1
Формат :MPEG Audio
Идентификатор кодека :55
Продолжительность :02:28:55.968
Вид битрейта :Variable
Битрейт :210 Kbps
Канал(ы) :2 channels
Частота :48.0 KHz
Метод сжатия :Lossy
Размер потока :224 MiB (11%)
Я
db65bd1ab8e0c1ff204645e8c89900e9a852fde9Смешная девчонка / Funny Girl (Уильям Уайлер , мюзикл, драма, мелодрама, комедия, биография, 1968) [DVDRip, Профессиональный (полное дублирование)+оригинал] Смешная девчонка / Funny Girl (Уильям Уайлер , мюзикл, драма, мелодрама, комедия, биография, 1968) [DVDRip, Профессиональный (полное дублирование)+оригинал] " />

Аплоадер: Админ, дата: 31-07-2011, 16:35, торрент скачан: 359 раз

Понравилась раздача? Посмотрите эти:
  • Коллекционер / The Collector (Уильям Уайлер, триллер, драма, 1958) [DVDRip, ...
  • Однажды на матрасе / Once Upon a Mattress (Кэтлин Маршалл, мюзикл, мелодрам ...
  • Моя любовь (Владимир Корш-Саблин, мюзикл, мелодрама, комедия, 1940) [DVDRip ...
  • Маленькая принцесса / The Little Princess (Уолтер Лэнг, Уильям А. Сайтер, м ...
  • Дрянная девчонка / My Sassy Girl (Ян Самюэль, Драма, мелодрама, комедия, 20 ...
  • Эй! В моем супе девушка / Theres a Girl in My Soup (Рой Боултинг, комедия, ...
  • Дружеское увещевание / Friendly Persuasion (Уильям Уайлер, драма, вестерн, ...
  • Я, бабушка, Илико и Илларион (Тенгиз Абуладзе, мелодрама, комедия, 1962) [D ...
  • Трембита (Олег Николаевский, мюзикл, мелодрама, комедия, 1968) [DVDRip, Не ...
  • Безумный Пьеро / Pierrot le fou (Жан-Люк Годар, мюзикл, драма, мелодрама, к ...
  • Как украсть миллион / How to steal a million (Уильям Уайлер, комедия, крими ...
  • Забавная мордашка / Funny Face (Стенли Донен, мюзикл, мелодрама, комедия, 1 ...
  • Фрида / Frida (Джули Тэймор, драма, мелодрама, биография, 2002) [DVDRip, Пр ...
  • Серенада солнечной долины / Sun Valley Serenade (Х. Брюс Хамберстоун, мюзик ...
  • Господин 420 / Shree 420 (Радж Капур, мюзикл, драма, мелодрама, 1955) [DVDR ...
  • Мальчишки с улицы Пал / A pal-utcai fiuk (Золтан Фабри, драма, 1968) [DVDRi ...
  • Огни рампы / Limelight (Чарльз Чаплин, драма, мелодрама, комедия, музыка, 1 ...
  • Наследница / The Heiress (Уильям Уайлер, драма, мелодрама, 1949) [DVDRip, П ...
  • Ганг, твои воды замутились / Ram Teri Ganga Maili (Радж Капур, мюзикл, мело ...
  • Хеллоу, Долли! / Hello, Dolly! (Джин Келли, мюзикл, мелодрама, комедия, сем ...
  • Информация
    Посетители, находящиеся в группе Гости, не могут оставлять комментарии к данной публикации.