вход на сайт

Имя пользователя :
Пароль :

Восстановление пароля Регистрация
Как украсть миллион / How to steal a million (Уильям Уайлер, комедия, криминал, мелодрама, 1966) [DVDRip, Профессиональный (полное дублирование)]
Рейтинг:
(голосов: 1)



[img]{THEME}/images/logopost.png[/img]



Как украсть миллион / How to steal a million

Год выпуска: 1966
Страна: США
Производство: World Wide Productions
Жанр: комедия, криминал, мелодрама

Режиссёр: Уильям Уайлер
В ролях: Одри Хепберн, Питер О’Тул, Эли Уоллах, Хью Гриффит, Шарль Буайе, Фернан Гравей, Марсель Далио, Жак Марен

Перевод: Профессиональный (полное дублирование)
Субтитры: Отсутствуют

Описание:
Действие происходит в Париже. Молодая девушка, дочь миллионера, втайне промышляющего подделкой произведений искусства, и преступник, должны выкрасть с выставки изобразительного искусства в музее один из «шедевров» отца девушки, чтобы спасти его от разоблачения.


Дополнительно:
MediaInfo ▼Text
Общее
Полное имя :D:РаздачаКак украсть миллионhow_to_steal_a_million.avi
Формат :AVI
Размер :700 MiB
Продолжительность :02:03:25.992
Общий поток :793 Kbps
Программа кодирования :VirtualDubMod 1.5.4.1 (build 2178/release)
Библиотека кодирования :VirtualDubMod build 2178/release

Видео
Идентификатор :0
Формат :MPEG-4 Visual
Параметр BVOP формата :No
Параметр Qpel формата :No
Параметр GMC формата :0
Параметр Matrix формата :Default (H.263)
Идентификатор кодека :DX50
Продолжительность :2h 3mn 25s 982ms
Битрейт :690 Kbps
Ширина :592 pixels
Высота :256 pixels
Соотношение сторон :2.313
Частота кадров :23.976 fps
Глубина цвета :8 bits
Подвыборка цветности :4:2:0
Цветовое пространство :YUV
Тип развертки :Progressive
Бит/(Пиксели*Кадры) :0.190
Размер потока :609 MiB (87%)
Библиотека кодирования :DivX503b1338

Аудио #1
Идентификатор :1
Формат :MPEG Audio
Идентификатор кодека :55
Продолжительность :02:03:25.992
Вид битрейта :Constant
Битрейт :96.0 Kbps
Канал(ы) :2 channels
Частота :32.0 KHz
Метод сжатия :Lossy
Размер потока :84.8 MiB (12%)
Язык :RussianТех. данные:
Качество:DVDRip
Продолжительность:02:03:22 час

Формат: AVI
Видео
6e723b03c764b049ea5ca818797f7c9542962bd2Как украсть миллион / How to steal a million (Уильям Уайлер, комедия, криминал, мелодрама, 1966) [DVDRip, Профессиональный (полное дублирование)] Как украсть миллион / How to steal a million (Уильям Уайлер, комедия, криминал, мелодрама, 1966) [DVDRip, Профессиональный (полное дублирование)] " />

Аплоадер: Админ, дата: 10-07-2011, 14:36, торрент скачан: 359 раз

Понравилась раздача? Посмотрите эти:
  • Коллекционер / The Collector (Уильям Уайлер, триллер, драма, 1958) [DVDRip, ...
  • Отпуск за свой счет (2 части из 2) (Виктор Титов, мелодрама, комедия, 1981) ...
  • Как украсть миллион / How to Steal a Million (Уильям Уайлер) [1966 г., DVDR ...
  • Такси! / Taxi! (Рой Дел Рут, комедия, мелодрама, криминал, 1932) [DVDRip, П ...
  • Азарт удачи / The Fortune Cookie (Билли Уайлдер, мелодрама, комедия, 1966) ...
  • Дружеское увещевание / Friendly Persuasion (Уильям Уайлер, драма, вестерн, ...
  • Я, бабушка, Илико и Илларион (Тенгиз Абуладзе, мелодрама, комедия, 1962) [D ...
  • Если бы у меня был миллион / If I Had a Million (Джеймс Круз, Х. Брюс Хамбе ...
  • Смешная девчонка / Funny Girl (Уильям Уайлер , мюзикл, драма, мелодрама, ко ...
  • Как украсть миллион / How to Steal a Million (Уильям Уайлер, мелодрама, ком ...
  • Вальсирующие / Les valseuses (Бертран Блие, драма, комедия, криминал, 1966) ...
  • Банковский билет в миллион фунтов стерлингов / The Million Pound Note (Рона ...
  • Лизелотта из Пфальца / Liselotte von der Pfalz (Курт Хофманн, мелодрама, ко ...
  • Серенада солнечной долины / Sun Valley Serenade (Х. Брюс Хамберстоун, мюзик ...
  • Языческая мадонна / A pogany madonna (Дьюла Месарош, комедия, криминал, 198 ...
  • Невезучие / La chevre (Франсис Вебер, комедия, криминал, приключения, 1981) ...
  • Огни рампы / Limelight (Чарльз Чаплин, драма, мелодрама, комедия, музыка, 1 ...
  • Жил-был полицейский / Il etait une fois un flic (Жорж Лотнер, комедия, крим ...
  • Наследница / The Heiress (Уильям Уайлер, драма, мелодрама, 1949) [DVDRip, П ...
  • Тупик / Dead End (Уильям Уайлер, драма, криминал, 1937) [DVDRip, Профессион ...
  • Информация
    Посетители, находящиеся в группе Гости, не могут оставлять комментарии к данной публикации.