вход на сайт

Имя пользователя :
Пароль :

Восстановление пароля Регистрация
Если бы у меня был миллион / If I Had a Million (Джеймс Круз, Х. Брюс Хамберстоун, Эрнст Любич, комедия, драма , 1932) [DVDRip, Профессиональный (двухголосый)]
Рейтинг:
(голосов: 1)



[img]{THEME}/images/logopost.png[/img]



Если бы у меня был миллион / If I Had a Million

Год выпуска: 1932
Страна: США
Производство: Paramount Pictures
Жанр: комедия, драма

Режиссёр: Джеймс Круз, Х. Брюс Хамберстоун, Эрнст Любич
В ролях: Гэри Купер, Чарльз Лотон, Джордж Рафт, Джек Оуки, Ричард Беннетт, Чарльз Рагглз, У.К. Филдс, Мэри Боланд, Роско Карнс.

Перевод: Профессиональный (двухголосый)
Субтитры: Отсутствуют

Описание:
Умирающий миллионер, окруженный толпой жадных наследников, придумывает способ употребить свои деньги с пользой: раздать случайным людям, выбранным наугад из телефонной книги. Однако не каждому из «счастливчиков», среди которых затюканный женой продавец, проститутка, мошенник, пара бывших цирковых артистов, приговорённый к смерти, клерк, легкомысленный вояка и пожилая дама, деньги пойдут впрок.


Дополнительно:
MediaInfo ▼Text
Общее
Полное имя :K:РАЗДАЧАЕсли бы у меня был миллионesli_by_u_menya_byl_million.avi
Формат :AVI
Размер :1.08 GiB
Продолжительность :01:23:14.865
Общий поток :1 865 Kbps
Программа кодирования :VirtualDubMod 1.5.10.2 (build 2542/release)
Библиотека кодирования :VirtualDubMod build 2542/release

Видео
Идентификатор :0
Формат :MPEG-4 Visual
Профиль формата :Advanced [email protected]
Параметр BVOP формата :2
Параметр Qpel формата :No
Параметр GMC формата :0
Параметр Matrix формата :Default (H.263)
Идентификатор кодека :XVID
Продолжительность :1h 23mn 14s 865ms
Битрейт :1 595 Kbps
Ширина :624 pixels
Высота :464 pixels
Соотношение сторон :1.345
Частота кадров :23.976 fps
Глубина цвета :8 bits
Подвыборка цветности :4:2:0
Цветовое пространство :YUV
Тип развертки :Progressive
Бит/(Пиксели*Кадры) :0.230
Размер потока :950 MiB (86%)
Библиотека кодирования :XviD0046

Аудио #1
Идентификатор :1
Формат :MPEG Audio
Идентификатор кодека :55
Продолжительность :01:23:14.832
Вид битрейта :Constant
Битрейт :128 Kbps
Канал(ы) :1 channel
Частота :48.0 KHz
Метод сжатия :Lossy
Размер потока :76.2 MiB (7
a5119a0042ab85f17922a30dca005ef267d24546Если бы у меня был миллион / If I Had a Million (Джеймс Круз, Х. Брюс Хамберстоун, Эрнст Любич, комедия, драма , 1932) [DVDRip, Профессиональный (двухголосый)] Если бы у меня был миллион / If I Had a Million (Джеймс Круз, Х. Брюс Хамберстоун, Эрнст Любич, комедия, драма , 1932) [DVDRip, Профессиональный (двухголосый)] " />

Аплоадер: Админ, дата: 30-06-2011, 21:38, торрент скачан: 359 раз

Понравилась раздача? Посмотрите эти:
  • Гарри-карманник / Harry in Your Pocket (Брюс Геллер, драма, комедия, кримин ...
  • Поездка в Америку / Coming to America (Джон Лэндис, драма, мелодрама, комед ...
  • С тобой меня радует мир / S tebou me bavi svet (Мария Поледнякова, комедия, ...
  • Мумия / The Mummy (Карл Фройнд, Ужасы, фэнтези 1932) [DVDRip, Профессионал ...
  • Однажды на матрасе / Once Upon a Mattress (Кэтлин Маршалл, мюзикл, мелодрам ...
  • Обнаженная / Naked (Майк Ли, драма, комедия, 1993) [DVDRip, (2х)Профессиона ...
  • Магазинчик за углом / The Shop Around the Corner (Эрнст Любич, драма, мелод ...
  • Такси! / Taxi! (Рой Дел Рут, комедия, мелодрама, криминал, 1932) [DVDRip, П ...
  • Сладкая жизнь / La dolce vita (Федерико Феллини, драма, комедия, 1959) [DVD ...
  • Шарло в Испании / Les Charlots font lEspagne (Жан Жиро, комедия, 1972) [DVD ...
  • У меня есть лев (2 части из 2) (Константин Бромберг, драма, комедия, приклю ...
  • Как украсть миллион / How to steal a million (Уильям Уайлер, комедия, крими ...
  • Банковский билет в миллион фунтов стерлингов / The Million Pound Note (Рона ...
  • 45 калибр / Ms .45 (Гари Леннон, триллер, драма, криминал, 2006) [DVDRip, П ...
  • Серенада солнечной долины / Sun Valley Serenade (Х. Брюс Хамберстоун, мюзик ...
  • Огни рампы / Limelight (Чарльз Чаплин, драма, мелодрама, комедия, музыка, 1 ...
  • Дневники мотылька / The Moth Diaries (Мэри Хэррон, ужасы, драма, 2011) [DVD ...
  • Неверные / Le infedeli (Марио Моничелли, Стено, драма, комедия, 1953) [DVDR ...
  • Наследница / The Heiress (Уильям Уайлер, драма, мелодрама, 1949) [DVDRip, П ...
  • Дьявольское око / Djдvulens цga (Ингмар Бергман, фэнтези, драма, комедия, 1 ...
  • Уик-энд / Week End (Жан-Люк Годар, драма, комедия, 1967) [DVDRip, Профессио ...
  • Псевдоним - Джесси Джеймс / Alias Jesse James (Норман З. МакЛеод, комедия, ...
  • Убей! / Kiru (Кихачи Окамото, боевик, драма, комедия, 1968) [DVDRip, Профес ...
  • Что навеял ветер / Something in the Wind (Ирвинг Пичел, мюзикл, комедия, 19 ...
  • Влюбленный гастролер / Sweet talker (Майкл Дженкинс, Комедия, 1991) [DVDRip ...
  • Информация
    Посетители, находящиеся в группе Гости, не могут оставлять комментарии к данной публикации.