вход на сайт

Имя пользователя :
Пароль :

Восстановление пароля Регистрация
Кошка на раскаленной крыше / Cat on a Hot Tin Roof (Ричард Брукс, драма, 1958) [DVDRip, Профессиональный (многоголосый, закадровый)+оригинал]
Рейтинг:
(голосов: 1)



[img]{THEME}/images/logopost.png[/img]



Кошка на раскаленной крыше / Cat on a Hot Tin Roof

Год выпуска: 1958
Страна: США
Производство: Avon Productions (II), Metro-Goldwyn-Mayer (MGM)
Жанр: драма

Режиссёр: Ричард Брукс
В ролях: Элизабет Тэйлор, Пол Ньюман, Берл Айвз, Джек Карсон, Джудит Андерсон, Расти Стивенс, Пэтти Энн Джеррити, Вон Тэйлор, Ларри Гэйтс

Перевод: Профессиональный (многоголосый, закадровый)+Оригинал
Субтитры: Отсутствуют

Описание:
Богатый престарелый южанин узнает, что скоро должен умереть. Все члены его жадной семьи, за исключением шалопая-сына, лезут из кожи вон, лишь бы получить наследство.


Дополнительно:
MediaInfo ▼Text
Общее
Полное имя :K:Кошка на раскаленной крышеKoshka_na_raskalennoi_krishe.avi
Формат :AVI
Размер :1.37 GiB
Продолжительность :01:43:48.520
Общий поток :1 886 Kbps
Программа кодирования :VirtualDubMod 1.5.4.1 (build 2178/release) VirtualDubMod build 2178/release

Видео
Идентификатор :0
Формат :MPEG-4 Visual
Профиль формата :Advanced [email protected]
Параметр BVOP формата :1
Параметр Qpel формата :No
Параметр GMC формата :0
Параметр Matrix формата :Custom
Идентификатор кодека :XVID
Продолжительность :1h 43mn 48s 520ms
Битрейт :1 620 Kbps
Ширина :640 pixels
Высота :368 pixels
Соотношение сторон :1.739
Частота кадров :25.000 fps
Глубина цвета :8 bits
Подвыборка цветности :4:2:0
Цветовое пространство :YUV
Тип развертки :Progressive
Бит/(Пиксели*Кадры) :0.275
Размер потока :1.17 GiB (86%)
Библиотека кодирования :XviD0043

Аудио #1
Идентификатор :1
Формат :MPEG Audio
Идентификатор кодека :55
Продолжительность :01:43:47.976
Вид битрейта :Constant
Битрейт :128 Kbps
Канал(ы) :2 channels
Частота :48.0 KHz
Метод сжатия :Lossy
Размер потока :95.0 MiB (7%)
Язык :5 / @5 / Russian

Аудио #2
Идентификатор :2
Формат &n
10536459660e1b084f35345490e65f3847b41b8dКошка на раскаленной крыше / Cat on a Hot Tin Roof (Ричард Брукс, драма, 1958) [DVDRip, Профессиональный (многоголосый, закадровый)+оригинал] Кошка на раскаленной крыше / Cat on a Hot Tin Roof (Ричард Брукс, драма, 1958) [DVDRip, Профессиональный (многоголосый, закадровый)+оригинал] " />

Аплоадер: Админ, дата: 11-03-2011, 06:24, торрент скачан: 359 раз

Понравилась раздача? Посмотрите эти:
  • Последний раз, когда я видел Париж / The Last Time I Saw Paris (Ричард Брук ...
  • Оклеветанная / Libeled Lady (Джек Конуэй, мелодрама, комедия, 1936) [DVDRip ...
  • Эта земля моя / This Land Is Mine (Жан Ренуар, драма, военный, 1943) [DVDRi ...
  • Трудный путь в Александрию / Ice Cold in Alex (Дж. Ли Томпсон, драма, военн ...
  • Коллекционер / The Collector (Уильям Уайлер, триллер, драма, 1958) [DVDRip, ...
  • Долгое жаркое лето / The Long, Hot Summer (Мартин Ритт, драма, 1958) [BDRip ...
  • Кошка на раскаленной крыше / Cat on a Hot Tin Roof (Ричард Брукс, драма, 19 ...
  • Не пойман - не вор / Ni vu, ni connu (Ив Робер, комедия, 1958) [DVDRip, Про ...
  • Сумерки / Twilight (Роберт Бентон / Robert Benton, детектив, 1998) [DVDRip, ...
  • Пуск торпеды / Torpedo Run (Джозеф Пивни, драма, военный, 1958) [DVDRip, Ав ...
  • Любовники / Les amants (Луи Малль, драма, 1958) [DVDRip, Профессиональный ( ...
  • Под знаком Козерога / Under Capricorn (Альфред Хичкок, драма, мелодрама, 19 ...
  • Солдат удачи / Soldier of Fortune (Эдвард Дмитрык, приключения, драма, 1955 ...
  • Осенняя соната / Hostsonaten (Ингмар Бергман, драма, музыка, 1978) [DVDRip, ...
  • Лето с Моникой / Sommaren med Monika (Ингмар Бергман, драма, мелодрама, 195 ...
  • Будь красивой и молчи / Sois belle et tais-toi (Марк Аллегре, комедия, 1958 ...
  • Гигант / Giant (Джордж Стивенс, драма, мелодрама, вестерн, 1956) [DVDRip, П ...
  • Гибель "Титаника" / A Night To Remember (Рой Уорд Бэйкер, драма, история, 1 ...
  • Колокол, книга и свеча / Bell Book and Candle (Ричард Квин, фэнтези, комеди ...
  • Мой дядюшка / Mon oncle (Жак Тати, комедия, 1958) [DVDRip, Профессиональный ...
  • Псих - Аут / Psych-Out (Ричард Раш, триллер, драма, музыка, 1968) [DVDRip, ...
  • Скрипач на крыше / Fiddler on the Roof (Норман Джуисон, мюзикл, драма, семе ...
  • Бравадос / The Bravados (Генри Кинг, драма, вестерн, 1958) [DVDRip, Професс ...
  • Уик-энд / Week End (Жан-Люк Годар, драма, комедия, 1967) [DVDRip, Профессио ...
  • Харакири / Seppuku (Масаки Кобаяси, драма, 1962) [DVDRip, Профессиональный ...
  • Информация
    Посетители, находящиеся в группе Гости, не могут оставлять комментарии к данной публикации.