вход на сайт

Имя пользователя :
Пароль :

Восстановление пароля Регистрация
Попугай, говорящий на идиш (Эфраим Севела, драма, комедия, приключения, военный, 1990) [DVDRip, Профессиональный (полное дублирование)]
Рейтинг:
(голосов: 1)



[img]{THEME}/images/logopost.png[/img]



Попугай, говорящий на идиш

Год выпуска: 1990
Страна: Германия, СССР
Производство: Киносервис, Примодесса фильм
Жанр: драма, комедия, приключения, военный

Режиссёр: Эфраим Севела
В ролях: Рамаз Иоселиани, Авангард Леонтьев, Марина Полицеймако, Семен Фарада, Альгис Матулёнис, Аудрюс Хадаравичюс, Анна Афанасьева, Юлия Менакерман, Карина Моритц, Вадим Жук

Перевод: Профессиональный (полное дублирование)
Субтитры: Отсутствуют

Описание:
О забавных приключениях молодого недотепы Янкеля во время второй мировой войны, который выживает благодаря своей нерасторопности. Наемным легионером он попадает в плен, пройдет по Сицилии с армией союзников и окажется в Индокитае. И везде его будет сопровождать слава.


Дополнительно:
MediaInfo ▼Text
Общее
Полное имя :L:Попугай, говорящий на идишPopugay, govoryachshiy na idish.avi
Формат :AVI
Размер :703 MiB
Продолжительность :01:25:05.600
Общий поток :1 155 Kbps
Библиотека кодирования :VirtualDub-MPEG2 build 23843/release

Видео
Идентификатор :0
Формат :MPEG-4 Visual
Профиль формата :Advanced [email protected]
Параметр BVOP формата :2
Параметр Qpel формата :No
Параметр GMC формата :0
Параметр Matrix формата :Default (H.263)
Идентификатор кодека :XVID
Продолжительность :1h 25mn 5s 600ms
Битрейт :1 017 Kbps
Ширина :480 pixels
Высота :360 pixels
Соотношение сторон :1.333
Частота кадров :25.000 fps
Глубина цвета :8 bits
Подвыборка цветности :4:2:0
Цветовое пространство :YUV
Тип развертки :Progressive
Бит/(Пиксели*Кадры) :0.235
Размер потока :619 MiB (88%)
Библиотека кодирования :XviD0043

Аудио #1
Идентификатор :1
Формат :MPEG Audio
Идентификатор кодека :55
Продолжительность :01:25:05.600
Вид битрейта :Constant
Битрейт :128 Kbps
Канал(ы) :2 channels
Частота :44.1 KHz
Метод сжатия :Lossy
Размер потока :77.9 MiB (11%)Тех. данные:
Качество:DVDRip
Продолжительность:01:25:00 час

Формат: AVI
Видео кодек: XviD
Аудио кодек: MPA1L3
Ви
35f19bf75c354fe7dddce5dcce539a0451fb1b89Попугай, говорящий на идиш (Эфраим Севела, драма, комедия, приключения, военный, 1990) [DVDRip, Профессиональный (полное дублирование)] Попугай, говорящий на идиш (Эфраим Севела, драма, комедия, приключения, военный, 1990) [DVDRip, Профессиональный (полное дублирование)] " />

Аплоадер: Админ, дата: 6-01-2013, 02:03, торрент скачан: 359 раз

Понравилась раздача? Посмотрите эти:
  • Кукарача (Кети Долидзе, Сико Долидзе, драма, 1982) [DVDRip, Профессиональны ...
  • Тоска (Фрунзе Довлатян, драма, 1990) [DVDRip, Профессиональный (полное дубл ...
  • Диверсанты / The Demolition Squad (Хайрудин Крвавац, военный, 1967) [DVDRip ...
  • Жизнь и необычайные приключения солдата Ивана Чонкина (Иржи Менцель, мелодр ...
  • Черная гора (Александр Згуриди, драма, семейный, 1972) [DVDRip, Профессиона ...
  • Пропавшая грамота (Борис Ивченко, фэнтези, комедия, 1972) [DVDRip, Професси ...
  • Термометр (Рамаз Шарабидзе, короткометражка, 1976) [TVRip, Профессиональный ...
  • Три рубля / Sami maneti (Рамаз Шарабидзе, короткометражка, комедия, 1976) [ ...
  • Слуги дьявола на Чёртовой мельнице (Александр Лейманис, комедия, приключени ...
  • Слуги Дьявола (Александр Лейманис, комедия, приключения, 1970) [DVDRip, Про ...
  • Бравый солдат Швейк / Dobry vojak Svejk (Карел Стеклы, комедия, военный, 19 ...
  • Швейк на фронте / Poslusne hlasim (Карел Стеклы, комедия, военный, 1957) [D ...
  • Грек Зорба / Alexis Zorbas (Михалис Какояннис, драма, приключения, 1964) [D ...
  • Лиловая равнина / The Purple Plain (Роберт Пэрриш, боевик, драма, приключен ...
  • Огни рампы / Limelight (Чарльз Чаплин, драма, мелодрама, комедия, музыка, 1 ...
  • Красавица Мемфиса / Memphis Belle (Майкл Кейтон-Джонс, боевик, драма, военн ...
  • Бог знает, мистер Аллисон / Heaven Knows, Mr. Allison (Джон Хьюстон, боевик ...
  • Пассажирка / Pasazerka (Анджей Мунк, Витольд Лесевич, драма, военный, истор ...
  • Где генерал? / Gdzie jest general… (Тадеуш Хмелевский, комедия, военный, 19 ...
  • Девичий заговор / Rzeczpospolita babska (Хероним Пшибыл, комедия, 1969) [DV ...
  • Информация
    Посетители, находящиеся в группе Гости, не могут оставлять комментарии к данной публикации.