вход на сайт

Имя пользователя :
Пароль :

Восстановление пароля Регистрация
В лесах под Ковелем (3 части из 3) (Юрий Тупицкий, военный, история, 1984) [DVDRip, Не требуется]
Рейтинг:
(голосов: 1)



[img]{THEME}/images/logopost.png[/img]



В лесах под Ковелем (3 части из 3)

Год выпуска: 1984
Страна: Россия
Производство: Студия Довженко
Жанр: военный, история

Режиссёр: Юрий Тупицкий
В ролях: Игорь Слободской, Анатолий Столбов, Людмила Чиншевая, Алексей Булдаков, Леонид Белозорович, Виктор Уральский, Виктор Фокин, Анатолий Гурьев, Наталья Сумская, Юрий Дубровин

Перевод: Не требуется
Субтитры: Отсутствуют

Описание:
О партизанском соединении, действовавшем в 1943 году в районе Ковельского железнодорожного узла.


Дополнительно:
MediaInfo ▼Text
"1 часть" ▼Общее
Полное имя :J:В лесах под КовелемВ лесах под Ковелем1_V_lesah_pod_Kovelem_DVDRip.avi
Формат :AVI
Размер :979 MiB
Продолжительность :01:04:12.120
Общий поток :2 131 Kbps
Программа кодирования :VirtualDubModRus 1.5.10.2 (build 2542/release)
Библиотека кодирования :VirtualDubMod build 2542/release

Видео
Идентификатор :0
Формат :MPEG-4 Visual
Параметр BVOP формата :1
Параметр Qpel формата :No
Параметр GMC формата :0
Параметр Matrix формата :Default (H.263)
Идентификатор кодека :DX50
Продолжительность :1h 4mn 12s 120ms
Битрейт :1 930 Kbps
Ширина :704 pixels
Высота :528 pixels
Соотношение сторон :1.333
Частота кадров :25.000 fps
Глубина цвета :8 bits
Подвыборка цветности :4:2:0
Цветовое пространство :YUV
Тип развертки :Progressive
Бит/(Пиксели*Кадры) :0.208
Размер потока :886 MiB (91%)
Библиотека кодирования :DivX503b2676p

Аудио #1
Идентификатор :1
Формат :MPEG Audio
Идентификатор кодека :55
Продолжительность :01:04:12.120
Вид битрейта :Constant
Битрейт :192 Kbps
Канал(ы) :2 channels
Частота :48.0 KHz
Метод сжатия :Lossy
Размер потока :88.2 MiB (9%)

"2 часть" ▼Общее
Полное имя :J:В лесах под КовелемВ лесах под Ковелем2_V_lesah_pod_Kovelem_DVDRip .avi
Формат :AVI
Размер &
7b170ba08a26d18b1e3737fd9617103fc6a8a2e9В лесах под Ковелем (3 части из 3) (Юрий Тупицкий, военный, история, 1984) [DVDRip, Не требуется] В лесах под Ковелем (3 части из 3) (Юрий Тупицкий, военный, история, 1984) [DVDRip, Не требуется] " />

Аплоадер: Админ, дата: 6-01-2013, 01:36, торрент скачан: 359 раз

Понравилась раздача? Посмотрите эти:
  • Дни хирурга Мишкина (3 части из 3) (Вадим Зобин, драма, 1967) [DVDRip, Не т ...
  • "Мерседес" уходит от погони (Юрий Ляшенко, военный, 1980) [DVDRip, Не требу ...
  • Возвращение резидента (2 части из 2) (Вениамин Дорман, триллер, 1982) [DVDR ...
  • Макар-следопыт (3 части из 3) (Николай Ковальский, семейный, 1984) [DVDRip, ...
  • Люди и манекены (4 части из 4) (Виктор Храмов, Аркадий Райкин, комедия, 197 ...
  • Дон Сезар де Базан (2 части из 2) (Ян Фрид, мюзикл, комедия, 1989) [DVDRip, ...
  • Три дня в Москве (2 части из 2) (Алексей Коренев, комедия, 1974) [DVDRip, Н ...
  • Бой после победы (2 части из 2) (Виллен Азаров, триллер, военный, 1972) [DV ...
  • Балтийское небо (2 части из 2) (Владимир Венгеров, драма, военный, история, ...
  • Живые и мертвые (2 части из 2) (Александр Столпер, драма, военный, 1963) [D ...
  • Операция «Трест» (4 части из 4) (Сергей Колосов, приключения, история, 1967 ...
  • Объяснение в любви (2 части из 2) (Илья Авербах, мелодрама, 1977) [DVDRip, ...
  • Карнавал (2 части из 2) (Татьяна Лиознова, мюзикл, комедия, 1981) [DVDRip, ...
  • Челюскинцы (2 части из 2) (Михаил Ершов, приключения, 1984) [TVRip, Не треб ...
  • Адъютант его превосходительства (5 частей из 5) (Евгений Ташков, мелодрама, ...
  • Степь (2 части из 2) (Сергей Бондарчук, драма, история, 1977) [DVDRip, Не т ...
  • Сибириада (4 части из 4) (Андрей Кончаловский, драма, военный, история, 197 ...
  • Почти смешная история (2 части из 2) (Петр Фоменко, мелодрама, комедия, 197 ...
  • Тихий Дон (3 части из 3) (Сергей Герасимов, драма, военный, 1957) [DVDRip, ...
  • Подпольный обком действует (4 части из 4) (Анатолий Буковский, военный, 197 ...
  • В лесах под Ковелем(Юрий Тупицкий, Военный, 1984) [DVDRip, Не требуется]
  • Гений (2 части из 2) (Виктор Сергеев, Комедия, криминал, 1991) [DVDRip, Не ...
  • Дядюшкин сон (2 части из2) (Александр Орлов, драма, комедия, 1981) [DVDRip, ...
  • Моонзунд (2 части из 2) (Александр Муратов, драма, мелодрама, военный, исто ...
  • Неизвестный солдат (3 части из 3) (Григорий Аронов, Вадим Зобин, драма, 198 ...
  • Информация
    Посетители, находящиеся в группе Гости, не могут оставлять комментарии к данной публикации.