вход на сайт

Имя пользователя :
Пароль :

Восстановление пароля Регистрация
Подпольный обком действует (4 части из 4) (Анатолий Буковский, военный, 1978) [DVDRip, Не требуется]
Рейтинг:
(голосов: 1)



[img]{THEME}/images/logopost.png[/img]



Подпольный обком действует (4 части из 4)

Год выпуска: 1978
Страна: СССР
Производство: Студия Довженко
Жанр: военный

Режиссёр: Анатолий Буковский
В ролях: Виктор Щербаков, Анатолий Барчук, Виктор Мирошниченко, Николай Олейник, Николай Гринько, Юрий Мажуга, Валентина Владимирова, Николай Сектименко, Нина Антонова, Виктор Демерташ

Перевод: Не требуется
Субтитры: Отсутствуют

Описание:
О партизанском движении на Черниговщине в годы Великой Отечественной войны


Дополнительно:
MediaInfo ▼Text
"1 часть" ▼Общее
Полное имя :J:В лесах под Ковелем1. Подпольный обком действуетПодпольный обком действует1_Podpol`niy_obkom_DVDRip_2.91GB.avi
Формат :AVI
Размер :692 MiB
Продолжительность :01:06:44.040
Общий поток :1 450 Kbps
Программа кодирования :VirtualDubModRus 1.5.10.2 (build 2542/release)
Библиотека кодирования :VirtualDubMod build 2542/release

Видео
Идентификатор :0
Формат :MPEG-4 Visual
Параметр BVOP формата :1
Параметр Qpel формата :No
Параметр GMC формата :0
Параметр Matrix формата :Default (H.263)
Идентификатор кодека :DX50
Продолжительность :1h 6mn 44s 40ms
Битрейт :1 313 Kbps
Ширина :640 pixels
Высота :480 pixels
Соотношение сторон :1.333
Частота кадров :25.000 fps
Глубина цвета :8 bits
Подвыборка цветности :4:2:0
Цветовое пространство :YUV
Тип развертки :Progressive
Бит/(Пиксели*Кадры) :0.171
Размер потока :627 MiB (91%)
Библиотека кодирования :DivX503b2676p

Аудио #1
Идентификатор :1
Формат :MPEG Audio
Идентификатор кодека :55
Продолжительность :01:06:44.040
Вид битрейта :Constant
Битрейт :128 Kbps
Канал(ы) :2 channels
Частота :48.0 KHz
Метод сжатия :Lossy
Размер потока :61.1 MiB (9%)

"2 часть" ▼Общее
Полное имя :J:В лесах под Ковелем1. Подпольный обком действуетПодпольный обком действует2_Podpol`niy_obkom_DVDRip_2.91GB.avi
Формат :AVI
Размер
f362484acd4c5840c32188986e5bb98944544c8dПодпольный обком действует (4 части из 4) (Анатолий Буковский, военный, 1978) [DVDRip, Не требуется] Подпольный обком действует (4 части из 4) (Анатолий Буковский, военный, 1978) [DVDRip, Не требуется] " />

Аплоадер: Админ, дата: 6-01-2013, 01:29, торрент скачан: 359 раз

Понравилась раздача? Посмотрите эти:
  • Дни хирурга Мишкина (3 части из 3) (Вадим Зобин, драма, 1967) [DVDRip, Не т ...
  • Будни и праздники Серафимы Глюкиной (2 части из 2) (Ростислав Горяев, драма ...
  • "Мерседес" уходит от погони (Юрий Ляшенко, военный, 1980) [DVDRip, Не требу ...
  • Ошибка резидента (2 части из 2) (Вениамин Дорман, детектив, 1968) [DVDRip, ...
  • Судьба резидента (2 части из 2) (Вениамин Дорман, детектив, приключения, 19 ...
  • Возвращение резидента (2 части из 2) (Вениамин Дорман, триллер, 1982) [DVDR ...
  • Месье Ленуар, который... (2 части из 2) (Александр Орлов, телеспектакль, др ...
  • Люди и манекены (4 части из 4) (Виктор Храмов, Аркадий Райкин, комедия, 197 ...
  • Бой после победы (2 части из 2) (Виллен Азаров, триллер, военный, 1972) [DV ...
  • Балтийское небо (2 части из 2) (Владимир Венгеров, драма, военный, история, ...
  • Двенадцать месяцев (2 части из 2) (Анатолий Граник, фэнтези, семейный, 1972 ...
  • Живые и мертвые (2 части из 2) (Александр Столпер, драма, военный, 1963) [D ...
  • До последней капли крови (2 части из 2) / Do krwi ostatiej (Ежи Гоффман, др ...
  • Адъютант его превосходительства (5 частей из 5) (Евгений Ташков, мелодрама, ...
  • Степь (2 части из 2) (Сергей Бондарчук, драма, история, 1977) [DVDRip, Не т ...
  • Слушать в отсеках (2 части из 2) (Николай Засеев-Руденко, приключения, 1985 ...
  • Сибириада (4 части из 4) (Андрей Кончаловский, драма, военный, история, 197 ...
  • Ханума (2 части из 2) (Георгий Товстоногов, мюзикл, комедия, 1978) [DVDRip, ...
  • Председатель (2 части из 2) (Алексей Салтыков, драма, 1964) [DVDRip, Не тре ...
  • Тихий Дон (3 части из 3) (Сергей Герасимов, драма, военный, 1957) [DVDRip, ...
  • Умные вещи (2 части из 2) (Анатолий Граник, детский, семейный, 1973) [DVDRi ...
  • В лесах под Ковелем (3 части из 3) (Юрий Тупицкий, военный, история, 1984) ...
  • Гений (2 части из 2) (Виктор Сергеев, Комедия, криминал, 1991) [DVDRip, Не ...
  • Р.В.С. (Алексей Мороз, военный, 1977) [DVDRip, (2х)Оригинал (русский)]
  • Неизвестный солдат (3 части из 3) (Григорий Аронов, Вадим Зобин, драма, 198 ...
  • Информация
    Посетители, находящиеся в группе Гости, не могут оставлять комментарии к данной публикации.