вход на сайт

Имя пользователя :
Пароль :

Восстановление пароля Регистрация
Приключения маленького Мука (Елизавета Кимягарова, мюзикл, семейный, 1983) [TVRip, Профессиональный (полное дублирование)]
Рейтинг:
(голосов: 1)



[img]{THEME}/images/logopost.png[/img]



Приключения маленького Мука

Год выпуска: 1983
Страна: СССР
Производство: Гостелерадио, Таджикфильм
Жанр: мюзикл, семейный

Режиссёр: Елизавета Кимягарова
В ролях: Бахтиёр Фидоев, Александр Парра, Лариса Белогурова, Джаник Файзиев, Махмуд Эсамбаев, Бимболат Ватаев, Тахир Сабиров, Евгений Герчаков, Анвар Тураев, Рано Кубаева

Перевод: Профессиональный (полное дублирование)
Субтитры: Отсутствуют

Описание:
Музыкальная телесказка по мотивам произведения Вильгельма Гауфа «Маленький Мук».


Дополнительно:
MediaInfo ▼Text
Общее
Полное имя :D:Приключения маленького МукаPriklyucheniya malenkogo muka.avi
Формат :AVI
Размер :781 MiB
Продолжительность :01:06:25.320
Общий поток :1 643 Kbps
Программа кодирования :VirtualDubMod 1.5.10.2 (build 2542/release)
Библиотека кодирования :VirtualDubMod build 2542/release

Видео
Идентификатор :0
Формат :MPEG-4 Visual
Параметр BVOP формата :1
Параметр Qpel формата :No
Параметр GMC формата :0
Параметр Matrix формата :Default (H.263)
Идентификатор кодека :DX50
Продолжительность :1h 6mn 25s 320ms
Битрейт :1 537 Kbps
Ширина :512 pixels
Высота :384 pixels
Соотношение сторон :1.333
Частота кадров :25.000 fps
Глубина цвета :8 bits
Подвыборка цветности :4:2:0
Цветовое пространство :YUV
Тип развертки :Progressive
Бит/(Пиксели*Кадры) :0.313
Размер потока :730 MiB (94%)
Библиотека кодирования :DivX503b740p

Аудио #1
Идентификатор :1
Формат :MPEG Audio
Идентификатор кодека :55
Продолжительность :01:06:25.200
Вид битрейта :Constant
Битрейт :96.0 Kbps
Канал(ы) :1 channel
Частота :44.1 KHz
Метод сжатия :Lossy
Размер потока :45.6 MiB (6%)



Тех. данные:
Качество:TVRip
Продолжительность:01:06:20 час

Формат: AVI
Видео кодек: DivX
Аудио кодек: MPA1L3
Видео: 512 x 384 (4:3), 25.000 fps, 1 537 Kbps, 0.313 bit/pixel
Аудио : 44.1 KHz, , 1 channel (), 96.0 Kbps



b977fcda899b112674b449334de75fe68d140cadПриключения маленького Мука (Елизавета Кимягарова, мюзикл, семейный, 1983) [TVRip, Профессиональный (полное дублирование)] Приключения маленького Мука (Елизавета Кимягарова, мюзикл, семейный, 1983) [TVRip, Профессиональный (полное дублирование)] " />

Аплоадер: Админ, дата: 4-01-2013, 18:23, торрент скачан: 359 раз

Понравилась раздача? Посмотрите эти:
  • Айрик (Генрих Малян, драма, семейный, 1972) [DVDRip, Профессиональный (пол ...
  • Гикор (Сергей Исраелян, драма, семейный, 1982) [DVDRip, Профессиональный (п ...
  • Волшебная сила (Наум Бирман, мюзикл, комедия, семейный, 1970) [DVDRip, Не т ...
  • На графских развалинах (Владимир Скуйбин, приключения, семейный, 1957) [DVD ...
  • Мама (Элизабета Бостан, мюзикл, фэнтези, семейный, 1976) [DVDRip, Не требуе ...
  • Летучая мышь (Реставрация) (Ян Фрид, мюзикл, комедия, 1978) [DVDRip, Профес ...
  • Князь Игорь (Роман Тихомиров, мюзикл, приключения, 1969) [DVDRip, Не требуе ...
  • Черная гора (Александр Згуриди, драма, семейный, 1972) [DVDRip, Профессиона ...
  • Пропавшая грамота (Борис Ивченко, фэнтези, комедия, 1972) [DVDRip, Професси ...
  • Мы с Вулканом (Валентин Перов, детский, семейный, 1973) [TVRip, Не требуетс ...
  • Термометр (Рамаз Шарабидзе, короткометражка, 1976) [TVRip, Профессиональный ...
  • Раннее, раннее утро... (3 части из 3) (Валерий Харченко, семейный, 1983) [T ...
  • Приключения маленького папы (Дмитрий Крупко, детский, комедия, 1979) [DVDRi ...
  • Проданный смех (2 части из 2) (Леонид Нечаев, мюзикл, фэнтези, приключения, ...
  • 31 июня (2 части из 2) (Леонид Квинихидзе, мюзикл, фэнтези, мелодрама, 1978 ...
  • ... и ещё одна ночь Шахерезады / Новые сказки Шахерезады / Последняя ночь Ш ...
  • Приключения Маленького Мука (Елизавета Кимягарова, Сказка, приключения, де ...
  • Смешная девчонка / Funny Girl (Уильям Уайлер , мюзикл, драма, мелодрама, ко ...
  • Большие гонки / The Great race (Блейк Эдвардс, приключения, боевик, комедия ...
  • Возвращение черного скакуна / The Black Stallion Returns (Роберт Далва, при ...
  • Информация
    Посетители, находящиеся в группе Гости, не могут оставлять комментарии к данной публикации.