вход на сайт

Имя пользователя :
Пароль :

Восстановление пароля Регистрация
Последний переход (Амангельды Тажбаев, боевик, 1981) [DVDRip, Профессиональный (полное дублирование с одноголосым, закадровым на казахский язык)]
Рейтинг:
(голосов: 1)



[img]{THEME}/images/logopost.png[/img]



Последний переход

Год выпуска: 1981
Страна: СССР
Производство: Студия Казахфильм
Жанр: боевик

Режиссёр: Амангельды Тажбаев
В ролях: Тунгышбай Джаманкулов, Кененбай Кожабеков, Анвар Боранбаев, Джамбул Худайбергенов, Динмухаммед Ахимов, Байкенже Бельбаев, Лев Тёмкин, Касым Жакибаев, Жумабай Медетбаев, Жанна Керимтаева

Перевод: Профессиональный (полное дублирование с одноголосым, закадровым на казахский язык)
Субтитры: Отсутствуют

Описание:

Действие фильма происходит в 1926 году на южных границах Казахстана. Поисковому отряду ОГПУ, возглавляемому опытным командиром Касымовым, поручается обезвредить банду басмачей, тайно перешедших границу.



Дополнительно:
MediaInfo ▼Text
Общее
Полное имя :K:2. РАЗДАЧАПоследний переходPosledniy perekhod.avi
Формат :AVI
Размер :1.31 GiB
Продолжительность :01:17:09.440
Общий поток :2 431 Kbps
Программа кодирования :VirtualDubModRus 1.5.10.2 (build 2542/release)
Библиотека кодирования :VirtualDubMod build 2542/release

Видео
Идентификатор :0
Формат :MPEG-4 Visual
Профиль формата :Advanced [email protected]
Параметр BVOP формата :3
Параметр Qpel формата :Yes
Параметр GMC формата :3
Параметр Matrix формата :Default (H.263)
Идентификатор кодека :XVID
Продолжительность :1h 17mn 9s 440ms
Битрейт :2 294 Kbps
Ширина :752 pixels
Высота :376 pixels
Соотношение сторон :2.000
Частота кадров :25.000 fps
Глубина цвета :8 bits
Подвыборка цветности :4:2:0
Цветовое пространство :YUV
Тип развертки :Progressive
Бит/(Пиксели*Кадры) :0.324
Размер потока :1.24 GiB (94%)
Библиотека кодирования :XviD0047

Аудио #1
Идентификатор :1
Формат :MPEG Audio
Идентификатор кодека :55
Продолжительность :01:17:09.096
Вид битрейта :Constant
Битрейт :128 Kbps
Канал(ы) :2 channels
Частота :48.0 KHz
Метод сжатия :Lossy
Размер потока :70.6 MiB (5%)Тех. данные:
Качество:DVDRip
Продолжительность:01:17:00 час

Формат: AVI
Видео кодек:
3909d350d41140c2e2462de5439805e048bdce3dПоследний переход (Амангельды Тажбаев, боевик, 1981) [DVDRip, Профессиональный (полное дублирование с одноголосым, закадровым на казахский язык)] Последний переход (Амангельды Тажбаев, боевик, 1981) [DVDRip, Профессиональный (полное дублирование с одноголосым, закадровым на казахский язык)] " />

Аплоадер: Админ, дата: 4-01-2013, 18:10, торрент скачан: 359 раз

Понравилась раздача? Посмотрите эти:
  • Воры в законе (Юрий Кара, триллер, криминал, 1988) [DVDRip, Профессиональны ...
  • Геркус Мантас (2 части из 2) (Марионас Гедрис, драма, 1972) [SATRip, Профес ...
  • В небе «ночные ведьмы» (Евгения Жигуленко, военный, 1981) [DVDRip, Не требу ...
  • 34-й скорый (Андрей Малюков, боевик, драма, 1981) [DVDRip, Не требуется]
  • Айрик (Генрих Малян, драма, семейный, 1972) [DVDRip, Профессиональный (пол ...
  • Отпуск за свой счет (2 части из 2) (Виктор Титов, мелодрама, комедия, 1981) ...
  • Наапет (Генрих Малян, драма, 1977) [DVDRip, Профессиональный (полное дублир ...
  • Мы и наши горы (Генрих Малян, драма, комедия, 1969) [DVDRip, Профессиональн ...
  • Кукарача (Кети Долидзе, Сико Долидзе, драма, 1982) [DVDRip, Профессиональны ...
  • Знахарь / Znachor (Ежи Гоффман, Драма, мелодрама, 1981) [DVDRip, Профессион ...
  • Всадник без головы (Владимир Вайншток, мелодрама, приключения, вестерн, 197 ...
  • Гикор (Сергей Исраелян, драма, семейный, 1982) [DVDRip, Профессиональный (п ...
  • Эзоп (Олег Рябоконь, драма, история, 1981) [DVDRip, Не требуется]
  • Тоска (Фрунзе Довлатян, драма, 1990) [DVDRip, Профессиональный (полное дубл ...
  • Стрелы Робин Гуда (Сергей Тарасов, боевик, приключения, история, 1975) [DVD ...
  • Украденный поезд (Владимир Янчев, драма, 1971) [DVDRip, Профессиональный (п ...
  • Карнавал (2 части из 2) (Татьяна Лиознова, мюзикл, комедия, 1981) [DVDRip, ...
  • Трое на снегу / Drei Manner im Schnee (Альфред Форер, комедия, 1974) [DVDRi ...
  • Черная гора (Александр Згуриди, драма, семейный, 1972) [DVDRip, Профессиона ...
  • Пропавшая грамота (Борис Ивченко, фэнтези, комедия, 1972) [DVDRip, Професси ...
  • Непобедимый (Юрий Борецкий, боевик, 1983) [DVDRip, Не требуется]
  • Приключения маленького Мука (Елизавета Кимягарова, мюзикл, семейный, 1983) ...
  • Как украсть миллион / How to steal a million (Уильям Уайлер, комедия, крими ...
  • Кто ты, всадник? (Амангельды Тажбаев, приключения, боевик, 1987) [DVDRip, н ...
  • Дядюшкин сон (2 части из2) (Александр Орлов, драма, комедия, 1981) [DVDRip, ...
  • Информация
    Посетители, находящиеся в группе Гости, не могут оставлять комментарии к данной публикации.