вход на сайт

Имя пользователя :
Пароль :

Восстановление пароля Регистрация
После дождичка, в четверг... (Михаил Юзовский, семейный, 1987) [DVDRip, Не требуется]
Рейтинг:
(голосов: 1)



[img]{THEME}/images/logopost.png[/img]



После дождичка, в четверг...

Год выпуска: 1987
Страна: СССР
Производство: Студия Горького
Жанр: семейный

Режиссёр: Михаил Юзовский
В ролях: Олег Табаков, Татьяна Пельтцер, Валентина Талызина, Юрий Медведев, Владимир Федоров, Семен Фарада, Олег Анофриев, Владислав Толдыков, Марина Зудина, Алексей Войтюк

Перевод: Не требуется
Субтитры: Отсутствуют

Описание:
Однажды, после дождичка в четверг, у царя Авдея родился первенец. В тот же день родила мальчика и ключница Варвара, а в капусте был обнаружен новорожденный подкидыш. Всех троих нарекли Иванами — и Авдей приказал растить хлопцев вместе. Однако ключница сделала по-своему: положила в царскую люльку своего Ивана, а двух других отдала разбойникам.


Дополнительно:
MediaInfo ▼Text
Общее
Полное имя :D:После дождичка в четвергПосле дождичка в четверг.avi
Формат :AVI
Размер :1.32 GiB
Продолжительность :01:14:35.080
Общий поток :2 527 Kbps
Программа кодирования :VirtualDubMod 1.5.10.2 (build 2540/release)
Библиотека кодирования :VirtualDubMod build 2540/release

Видео
Идентификатор :0
Формат :MPEG-4 Visual
Профиль формата :Advanced [email protected]
Параметр BVOP формата :2
Параметр Qpel формата :Yes
Параметр GMC формата :3
Параметр Matrix формата :Default (H.263)
Идентификатор кодека :XVID
Продолжительность :1h 14mn 35s 80ms
Битрейт :2 390 Kbps
Ширина :720 pixels
Высота :424 pixels
Соотношение сторон :1.698
Частота кадров :25.000 fps
Глубина цвета :8 bits
Подвыборка цветности :4:2:0
Цветовое пространство :YUV
Тип развертки :Progressive
Бит/(Пиксели*Кадры) :0.313
Размер потока :1.24 GiB (95%)
Библиотека кодирования :XviD0047

Аудио #1
Идентификатор :1
Формат :MPEG Audio
Идентификатор кодека :55
Продолжительность :01:14:34.704
Вид битрейта :Constant
Битрейт :128 Kbps
Канал(ы) :2 channels
Частота :48.0 KHz
Метод сжатия :Lossy
Размер потока :68.3 MiB (5%)



Тех. данные:
Качество:DVDRip
Продолжительность:01:14:30 час
0256439d98a864ed20109c20d2c1805a01b4a1ecПосле дождичка, в четверг... (Михаил Юзовский, семейный, 1987) [DVDRip, Не требуется] После дождичка, в четверг... (Михаил Юзовский, семейный, 1987) [DVDRip, Не требуется] " />

Аплоадер: Админ, дата: 1-01-2013, 08:12, торрент скачан: 359 раз

Понравилась раздача? Посмотрите эти:
  • Золотые яблоки (Фёдор Филиппов, семейный, 1954) [DVDRip, Не требуется]
  • Акваланги на дне (Евгений Шерстобитов, боевик, приключения, семейный, 1965) ...
  • Завтра была война (Юрий Кара, драма, семейный, военный, 1987) [DVDRip, Не т ...
  • Человек идёт за солнцем (Михаил Калик, драма, 1961) [DVDRip, Не требуется]
  • Ход конем (Татьяна Лукашевич, комедия, 1962) [DVDRip, Не требуется]
  • Тайна железной двери (Михаил Юзовский, фантастика, приключения, семейный, 1 ...
  • Анискин и Фантомас (2 части из 2) (Михаил Жаров, Владимир Рапопорт, комедия ...
  • Иван да Марья (Борис Рыцарев, фэнтези, мелодрама, комедия, семейный, музыка ...
  • Капитанская дочка (Владимир Каплуновский, драма, 1958) [DVDRip, Не требуетс ...
  • Дуэнья (Михаил Григорьев, комедия, история, 1978) [DVDRip, Не требуется]
  • Раз, два – горе не беда! (Михаил Юзовский, юзикл, семейный, 1988) [DVDRip-A ...
  • Печники (Виктор Храмов, драма, 1982) [DVDRip, Не требуется]
  • Как Иванушка-дурачок за чудом ходил (Надежда Кошеверова, фэнтези, семейный, ...
  • Карусель (Михаил Швейцер, комедия, 1970) [DVDRip, Не требуется]
  • Там, на неведомых дорожках... (Реставрирован) (Михаил Юзовский, фэнтези, се ...
  • Пропало лето (Ролан Быков, Никита Орлов, комедия, семейный, 1963) [DVDRip, ...
  • Приключения желтого чемоданчика (Илья Фрэз, комедия, семейный, 1970) [DVDRi ...
  • Сказка о царе Салтане (Александр Птушко, фэнтези, семейный, 1967) [DVDRip, ...
  • ... и ещё одна ночь Шахерезады / Новые сказки Шахерезады / Последняя ночь Ш ...
  • Оглашению не подлежит (Хасан Бакаев, драма, 1987) [TVRip, Не требуется]
  • Пока безумствует мечта (Юрий Горковенко, комедия, приключения, 1978) [DVDRi ...
  • После дождичка в четверг (Михаил Юзовский, Киносказка, 1985) [DVDRip]
  • Тайна железной двери (Михаил Юзовский, Фантастика, Приключения, Семейный, 1 ...
  • Раз, два - горе не беда ! (Михаил Юзовский, Сказка, семейный, 1988) [DVDRip ...
  • После дождичка, в четверг (Михаил Юзовский, детский фильм, 1985) [DVDRip, Н ...
  • Информация
    Посетители, находящиеся в группе Гости, не могут оставлять комментарии к данной публикации.