вход на сайт

Имя пользователя :
Пароль :

Восстановление пароля Регистрация
Оглашению не подлежит (Хасан Бакаев, драма, 1987) [TVRip, Не требуется]
Рейтинг:
(голосов: 1)



[img]{THEME}/images/logopost.png[/img]



Оглашению не подлежит

Год выпуска: 1987
Страна: СССР
Производство: Мосфильм
Жанр: драма

Режиссёр: Хасан Бакаев
В ролях: Александр Францевич, Анатолий Васильев, Вадим Спиридонов, Олег Стриженов, Александр Сластин, Владимир Пичугин, Светлана Коркошко, Ирина Метлицкая, Владимир Головин, Юрий Смирнов

Перевод: Не требуется
Субтитры: Отсутствуют

Описание:
1921 год. Бежавший из Крыма Врангель, сосредоточив на болгарском берегу свою армию, готовит десант и рассчитывает только на поддержку затаившегося в Ростове контрреволюционного подполья. В руки красноармейцев попадает есаул Филатов, которому «устраивают» побег с помощью чекиста Бахарева. Филатов вместе со своим «спасителем» оказывается в центре тайной организации, готовящей бессмысленный мятеж…


Дополнительно:
MediaInfo ▼Text
Общее
Полное имя :D:Оглашению не подлежитОглашению не подлежит.avi
Формат :AVI
Размер :926 MiB
Продолжительность :01:19:37.968
Общий поток :1 625 Kbps
Программа кодирования :VirtualDubMod 1.5.10.2 (build 2540/release)
Библиотека кодирования :VirtualDubMod build 2540/release

Видео
Идентификатор :0
Формат :MPEG-4 Visual
Профиль формата :Advanced [email protected]
Параметр BVOP формата :2
Параметр Qpel формата :Yes
Параметр GMC формата :3
Параметр Matrix формата :Default (H.263)
Идентификатор кодека :XVID
Продолжительность :1h 19mn 37s 960ms
Битрейт :1 487 Kbps
Ширина :720 pixels
Высота :416 pixels
Соотношение сторон :1.731
Частота кадров :25.000 fps
Глубина цвета :8 bits
Подвыборка цветности :4:2:0
Цветовое пространство :YUV
Тип развертки :Progressive
Бит/(Пиксели*Кадры) :0.199
Размер потока :847 MiB (92%)
Библиотека кодирования :XviD0047

Аудио #1
Идентификатор :1
Формат :MPEG Audio
Идентификатор кодека :55
Продолжительность :01:19:37.968
Вид битрейта :Constant
Битрейт :128 Kbps
Канал(ы) :2 channels
Частота :48.0 KHz
Метод сжатия :Lossy
Размер потока :72.9 MiB (8%)



Тех. данные:
Качество:TVRip
Продолжите
4db931fa1521a5a92da9e8218ac230590104c59fОглашению не подлежит (Хасан Бакаев, драма, 1987) [TVRip, Не требуется] Оглашению не подлежит (Хасан Бакаев, драма, 1987) [TVRip, Не требуется] " />

Аплоадер: Админ, дата: 1-01-2013, 08:00, торрент скачан: 359 раз

Понравилась раздача? Посмотрите эти:
  • Бой под Соколом (Александр Разумный, военный, 1942) [DVDRip, Не требуется]
  • Зимородок (Вячеслав Никифоров, военный, 1972) [DVDRip, Не требуется]
  • Старшина (Николай Кошелев, драма, 1979) [DVDRip, Не требуется]
  • Прощай, шпана замоскворецкая... (Александр Панкратов, драма, мелодрама, 198 ...
  • Призрак (Никита Орлов, боевик, триллер, 1991) [TVRip, Не требуется]
  • Последняя жертва (Петр Тодоровский, драма, мелодрама, 1975) [DVDRip, Не тре ...
  • Бабье царство (Алексей Салтыков, драма, 1967) [DVDRip, Не требуется]
  • Вся королевская рать (3 части из 3) (Наум Ардашников, Александр Гуткович, д ...
  • Неподсуден (Владимир Краснопольский, Валерий Усков, драма, 1969) [DVDRip, Н ...
  • Капитанская дочка (Владимир Каплуновский, драма, 1958) [DVDRip, Не требуетс ...
  • Пиковая Дама (Роман Тихомиров, мюзикл, драма, 1961) [DVDRip, Не требуется]
  • Шторм на суше (Эдуард Бочаров, детский, 1975) [TVRip, Не требуется]
  • Чудный характер (Константин Воинов, драма, 1970) [DVDRip, Не требуется]
  • Печники (Виктор Храмов, драма, 1982) [DVDRip, Не требуется]
  • Игра на миллионы (Геннадий Байсак, комедия, криминал, приключения, 1991) [T ...
  • Киноальманх: От семи до двенадцати (Хасан Бакаев, Екатерина Сташевская-Наро ...
  • Холодное лето пятьдесят третьего (Александр Прошкин, боевик, драма, кримина ...
  • Сказка о царе Салтане (Александр Птушко, фэнтези, семейный, 1967) [DVDRip, ...
  • После дождичка, в четверг... (Михаил Юзовский, семейный, 1987) [DVDRip, Не ...
  • Как дома, как дела? (Самвел Гаспаров, драма, семейный, 1987) [TVRip, Не тер ...
  • Кутузов (Владимир Петров, драма, 1943) [DVDRip, Не требуется]
  • Гарем Степана Гуслякова (Алишер Хамдамов, драма, 1989) [TVRip, Не требуетс ...
  • Ведьма (Александр Абрамов, короткометражка, драма, 1958) [TVRip, Не требует ...
  • Моонзунд (2 части из 2) (Александр Муратов, драма, мелодрама, военный, исто ...
  • Как рождаются тосты (Всеволод Массино, Оскар Герц, Андрей Тутышкин, коротко ...
  • Информация
    Посетители, находящиеся в группе Гости, не могут оставлять комментарии к данной публикации.