вход на сайт

Имя пользователя :
Пароль :

Восстановление пароля Регистрация
... и ещё одна ночь Шахерезады / Новые сказки Шахерезады / Последняя ночь Шахерезады (Тахир Сабиров, семейный, 1984, 1986, 1987) [DVDRip, Не требуется]
Рейтинг:
(голосов: 1)



[img]{THEME}/images/logopost.png[/img]



... и ещё одна ночь Шахерезады

... и ещё одна ночь Шахерезады ▼Год выпуска: 1984
Страна: СССР
Производство: Таджикфильм
Жанр: семейный

Режиссёр: Тахир Сабиров
В ролях: Елена Тонунц, Адель Аль-Хадад, Лариса Белогурова, Шариф Кабулов, Бурхон Раджабов, Тамара Яндиева, Галиб Исламов, Дильбар Умарова, Саттар Дикамбаев, Наби Рахимов

Перевод: Не требуется
Субтитры: Отсутствуют

Описание:
И продолжила восхитительная Шахерезада дозволенные речи, и рассказала удивительную историю, героями которой стали сам Калиф, его злобный и завистливый визирь, дочь Калифа Малика и влюбленный в нее юноша.


Дополнительно:
MediaInfo ▼Text
Общее
Полное имя :J:ШахерезадаShaherezadaИ ещё одна ночь Шахерезады.avi
Формат :AVI
Размер :1.41 GiB
Продолжительность :01:18:08.960
Общий поток :2 591 Kbps
Программа кодирования :VirtualDubMod 1.5.10.2 (build 2540/release)
Библиотека кодирования :VirtualDubMod build 2540/release

Видео
Идентификатор :0
Формат :MPEG-4 Visual
Профиль формата :Advanced [email protected]
Параметр BVOP формата :2
Параметр Qpel формата :Yes
Параметр GMC формата :3
Параметр Matrix формата :Default (H.263)
Идентификатор кодека :XVID
Продолжительность :1h 18mn 8s 960ms
Битрейт :2 389 Kbps
Ширина :720 pixels
Высота :552 pixels
Соотношение сторон :1.304
Частота кадров :25.000 fps
Глубина цвета :8 bits
Подвыборка цветности :4:2:0
Цветовое пространство :YUV
Тип развертки :Progressive
Бит/(Пиксели*Кадры) :0.240
Размер потока :1.30 GiB (92%)
Библиотека кодирования :XviD0047

Аудио #1
Идентификатор :1
Формат :AC-3
Формат/Информация :Audio Coding 3
Идентификатор кодека :2000
Продолжительность :01:18:08.960
Вид битрейта :Constant
Битрейт :192 Kbps
Канал(ы) :2 channels
Расположение каналов :Front: L R
Частота :48.0 KHz
Битовая глубина :16 bits
Метод сжатия :Lossy
Размер потока :107 MiB (7%)



С
6c03d5832e07f42cce5fe0fccc602a414e9f2d78... и ещё одна ночь Шахерезады / Новые сказки Шахерезады / Последняя ночь Шахерезады (Тахир Сабиров, семейный, 1984, 1986, 1987) [DVDRip, Не требуется] ... и ещё одна ночь Шахерезады / Новые сказки Шахерезады / Последняя ночь Шахерезады (Тахир Сабиров, семейный, 1984, 1986, 1987) [DVDRip, Не требуется] " />

Аплоадер: Админ, дата: 31-12-2012, 12:24, торрент скачан: 359 раз

Понравилась раздача? Посмотрите эти:
  • Акваланги на дне (Евгений Шерстобитов, боевик, приключения, семейный, 1965) ...
  • Прощай, шпана замоскворецкая... (Александр Панкратов, драма, мелодрама, 198 ...
  • Деревня Утка (Борис Бунеев, семейный, 1976) [DVDRip, Не требуется]
  • И вот пришел Бумбо... (Надежда Кошеверова, В. Апананский, Н. Окунцова, семе ...
  • Мы – одна команда / We Are Marshall (Джеми Линден, Кори Хелмс, Драма, спорт ...
  • Левша (Сергей Овчаров, драма, комедия, 1986) [DVDRip, Не требуется]
  • Скуби-Ду и ночи Шахерезады / Scooby-Doo In Arabian Night (Джан Фалкенштейн, ...
  • Мульт-Салют. 19 ч. из 30: Новогодняя ночь/Золотая антилопа/Вовка в Тридевят ...
  • Майская ночь, или Утопленница (Александр Роу, фэнтези, комедия, 1952) [DVDR ...
  • После дождичка, в четверг... (Михаил Юзовский, семейный, 1987) [DVDRip, Не ...
  • Приключения маленького Мука (Елизавета Кимягарова, мюзикл, семейный, 1983) ...
  • Новые сказки Шахерезады (Тахир Сабиров, Семейный, 1987) [DVDRip]
  • Последняя ночь Шахерезады (Тахир Сабиров, Семейный, 1987) [DVDRip]
  • Тысяча и одна ночь (сказки, читают: Э.Арзуманян, Ж. Рождественская) [MP3, 1 ...
  • Тысяча и одна ночь / Чудеса Аладдина / The Wonders of Aladdin / Le meravigl ...
  • Синдбад и калиф Багдада / Simbad e il califfo di Bagdad (Пьетро Франчиши, п ...
  • Их первая ночь / Nuit #1 (Энн Эмон, драма, 2011) [DVDRip, Профессиональный ...
  • Невеста на одну ночь / Moglie per una notte (Марио Камерини, комедия, 1952) ...
  • Эпоха радио / Radio Days (Вуди Аллен, комедия, семейный, 1987) [DVDRip, Про ...
  • Дом на дюнах (Дмитрий Салынский, приключения, 1984) [DVDRip, Не требуется]
  • Информация
    Посетители, находящиеся в группе Гости, не могут оставлять комментарии к данной публикации.