вход на сайт

Имя пользователя :
Пароль :

Восстановление пароля Регистрация
Ученик лекаря (Борис Рыцарев, комедия, семейный, история, 1986) [DVDRip, Не требуется]
Рейтинг:
(голосов: 1)



[img]{THEME}/images/logopost.png[/img]



Ученик лекаря

Год выпуска: 1986
Страна: СССР
Производство: Студия Горького
Жанр: комедия, семейный, история

Режиссёр: Борис Рыцарев
В ролях: Олег Казанчеев, Олег Голубицкий, Наталья Вавилова, Ариадна Шенгелая, Михаил Глузский, Григорий Мануков, Виктор Ильичев, Юрий Чекулаев, Лилия Гриценко, Светлана Орлова

Перевод: Не требуется
Субтитры: Отсутствуют

Описание:
Промышляющий врачеванием предприимчивый юноша, стремясь завоевать расположение своей возлюбленной, клянется вылечить ее матушку от тяжкой болезни.

Чтобы всерьез познать секреты медицины, ему приходится под видом глухонемого наняться в помощники к лучшему лекарю. Удастся ли герою сдержать свое обещание?


Дополнительно:
MediaInfo ▼Text
Общее
Полное имя :J:Ученик лекаряUchenik lekarya.DVDRip.avi
Формат :AVI
Размер :701 MiB
Продолжительность :01:07:37.800
Общий поток :1 448 Kbps
Программа кодирования :VirtualDubMod 1.5.10.2 (build 2540/release)

Видео
Идентификатор :0
Формат :MPEG-4 Visual
Параметр BVOP формата :1
Параметр Qpel формата :No
Параметр GMC формата :0
Параметр Matrix формата :Default (H.263)
Идентификатор кодека :DX50
Продолжительность :1h 7mn 37s 800ms
Битрейт :1 312 Kbps
Ширина :640 pixels
Высота :480 pixels
Соотношение сторон :1.333
Частота кадров :25.000 fps
Глубина цвета :8 bits
Подвыборка цветности :4:2:0
Цветовое пространство :YUV
Тип развертки :Progressive
Бит/(Пиксели*Кадры) :0.171
Размер потока :634 MiB (91%)
Библиотека кодирования :DivX503b1328p

Аудио #1
Идентификатор :1
Формат :MPEG Audio
Идентификатор кодека :55
Продолжительность :01:07:05.136
Вид битрейта :Constant
Битрейт :128 Kbps
Канал(ы) :2 channels
Частота :48.0 KHz
Метод сжатия :Lossy
Размер потока :61.4 MiB (9%)



Тех. данные:
Качество:DVDRip
Продолжительность:01:07:30 час

Формат: AVI
Видео кодек: DivX
Аудио кодек: MPA1L3
Видео: 640 x 480 (4:3), 25.000 fps, 1 312 Kbps, 0.171 bit/pixel
Аудио : 48.0 KHz, , 2 channels (), 128 Kbps



9545bb064d505bdd2a5f3ef1550abafad7d9726cУченик лекаря (Борис Рыцарев, комедия, семейный, история, 1986) [DVDRip, Не требуется] Ученик лекаря (Борис Рыцарев, комедия, семейный, история, 1986) [DVDRip, Не требуется] " />

Аплоадер: Админ, дата: 29-12-2012, 23:57, торрент скачан: 359 раз

Понравилась раздача? Посмотрите эти:
  • Дружок (Виктор Эйсымонт, семейный, 1958) [DVDRip, Не требуется]
  • Аленка (Борис Барнет, комедия, 1961) [DVDRip, Не требуется]
  • Где это видано, где это слыхано (Валентин Горлов, короткометражка, комедия, ...
  • Рыжик (Илья Фрэз, приключения, семейный, 1960) [DVDRip, Не требуется]
  • Приключения Толи Клюквина (Виктор Эйсымонт, комедия, семейный, 1964) [DVDRi ...
  • Ох, уж эта Настя! (Юрий Победоносцев, семейный, 1972) [DVDRip, Не требуется ...
  • Пакет (Владимир Назаров, комедия, приключения, семейный, 1965) [DVDRip, Не ...
  • Волшебная сила (Наум Бирман, мюзикл, комедия, семейный, 1970) [DVDRip, Не т ...
  • Деревня Утка (Борис Бунеев, семейный, 1976) [DVDRip, Не требуется]
  • Иван да Марья (Борис Рыцарев, фэнтези, мелодрама, комедия, семейный, музыка ...
  • Левша (Сергей Овчаров, драма, комедия, 1986) [DVDRip, Не требуется]
  • Князь Удача Андреевич (Геннадий Байсак, комедия, криминал, семейный, 1989) ...
  • Печники (Виктор Храмов, драма, 1982) [DVDRip, Не требуется]
  • Подарок чёрного колдуна (Борис Рыцарев, фэнтези, приключения, семейный, 197 ...
  • Сотрудник ЧК (Борис Волчек, боевик, история, 1963) [DVDRip, Не требуется]
  • Славный малый (Борис Барнет, военный, 1943) [DVDRip, Не требуется]
  • Проделки в старинном духе (Александр Панкратов, комедия, 1986) [DVDRip, Не ...
  • Приключения желтого чемоданчика (Илья Фрэз, комедия, семейный, 1970) [DVDRi ...
  • Сказка о царе Салтане (Александр Птушко, фэнтези, семейный, 1967) [DVDRip, ...
  • ... и ещё одна ночь Шахерезады / Новые сказки Шахерезады / Последняя ночь Ш ...
  • После дождичка, в четверг... (Михаил Юзовский, семейный, 1987) [DVDRip, Не ...
  • Полустанок (Борис Барнет, мелодрама, комедия, 1963) [DVDRip, Не требуется]
  • Принцесса на горошине (Борис Рыцарев, фэнтези, семейный, 1976) [DVDRip-AVC, ...
  • Ученик лекаря (Борис Рыцарев, сказка, семейный, 1983) [DVDRip, не требуется ...
  • Чудак-человек (Владимир Кочетов, комедия, 1962) [DVDRip, Не требуется]
  • Информация
    Посетители, находящиеся в группе Гости, не могут оставлять комментарии к данной публикации.