вход на сайт

Имя пользователя :
Пароль :

Восстановление пароля Регистрация
Тихий Дон (3 части из 3) (Сергей Герасимов, драма, военный, 1957) [DVDRip, Не требуется]
Рейтинг:
(голосов: 1)



[img]{THEME}/images/logopost.png[/img]



Тихий Дон (3 части из 3)

Год выпуска: 1957
Страна: СССР
Производство: Студия Горького
Жанр: драма, военный

Режиссёр: Сергей Герасимов
В ролях: Петр Глебов, Элина Быстрицкая, Зинаида Кириенко, Даниил Ильченко, Людмила Хитяева, Николай Смирнов, Александр Жуков, Наталья Архангельская, Александра Денисова, Алексей Благовестов

Перевод: Не требуется
Субтитры: Отсутствуют

Описание:
Григорий возвращается в родную станицу. Его сердце по-прежнему тянется к Аксинье. Наталья узнает от Дарьи об измене мужа и не может простить его…


Дополнительно:
MediaInfo ▼Text
"1 часть" ▼Общее
Полное имя :J:1. РАЗДАЧАТихий ДонТихий Дон1_Tihiy_Don.avi
Формат :AVI
Размер :936 MiB
Продолжительность :01:43:56.440
Общий поток :1 259 Kbps
Программа кодирования :VirtualDubModRus 1.5.10.2 (build 2542/release)
Библиотека кодирования :VirtualDubMod build 2542/release

Видео
Идентификатор :0
Формат :MPEG-4 Visual
Параметр BVOP формата :1
Параметр Qpel формата :No
Параметр GMC формата :0
Параметр Matrix формата :Default (H.263)
Идентификатор кодека :DX50
Продолжительность :1h 43mn 56s 440ms
Битрейт :1 121 Kbps
Ширина :640 pixels
Высота :480 pixels
Соотношение сторон :1.333
Частота кадров :25.000 fps
Глубина цвета :8 bits
Подвыборка цветности :4:2:0
Цветовое пространство :YUV
Тип развертки :Progressive
Бит/(Пиксели*Кадры) :0.146
Размер потока :834 MiB (89%)
Библиотека кодирования :DivX503b2676p

Аудио #1
Идентификатор :1
Формат :MPEG Audio
Идентификатор кодека :55
Продолжительность :01:43:56.064
Вид битрейта :Constant
Битрейт :128 Kbps
Канал(ы) :2 channels
Частота :48.0 KHz
Метод сжатия :Lossy
Размер потока :95.2 MiB (10%)

"2 часть" ▼Общее
Полное имя :J:Тихий ДонТихий Дон2_Tihiy_Don.avi
Формат :AVI
Размер :992 MiB
Продолжительн
c86249f96d9d329a7a6864c1f1e99372fc518355Тихий Дон (3 части из 3) (Сергей Герасимов, драма, военный, 1957) [DVDRip, Не требуется] Тихий Дон (3 части из 3) (Сергей Герасимов, драма, военный, 1957) [DVDRip, Не требуется] " />

Аплоадер: Админ, дата: 29-12-2012, 23:50, торрент скачан: 359 раз

Понравилась раздача? Посмотрите эти:
  • Дни хирурга Мишкина (3 части из 3) (Вадим Зобин, драма, 1967) [DVDRip, Не т ...
  • Будни и праздники Серафимы Глюкиной (2 части из 2) (Ростислав Горяев, драма ...
  • Ошибка резидента (2 части из 2) (Вениамин Дорман, детектив, 1968) [DVDRip, ...
  • Возвращение резидента (2 части из 2) (Вениамин Дорман, триллер, 1982) [DVDR ...
  • Конец операции «Резидент» (2 части из 2) (Вениамин Дорман, боевик, приключе ...
  • Мир дому твоему (2 части из 2) (Константин Райкин, Аркадий Райкин, Марк Орл ...
  • Месье Ленуар, который... (2 части из 2) (Александр Орлов, телеспектакль, др ...
  • Люди и манекены (4 части из 4) (Виктор Храмов, Аркадий Райкин, комедия, 197 ...
  • Дон Сезар де Базан (2 части из 2) (Ян Фрид, мюзикл, комедия, 1989) [DVDRip, ...
  • Бой после победы (2 части из 2) (Виллен Азаров, триллер, военный, 1972) [DV ...
  • Поднятая целина (3 части из 3) (Александр Иванов, драма, 1959) [DVDRip, Не ...
  • Балтийское небо (2 части из 2) (Владимир Венгеров, драма, военный, история, ...
  • Живые и мертвые (2 части из 2) (Александр Столпер, драма, военный, 1963) [D ...
  • Операция «Трест» (4 части из 4) (Сергей Колосов, приключения, история, 1967 ...
  • Степь (2 части из 2) (Сергей Бондарчук, драма, история, 1977) [DVDRip, Не т ...
  • Сибириада (4 части из 4) (Андрей Кончаловский, драма, военный, история, 197 ...
  • Председатель (2 части из 2) (Алексей Салтыков, драма, 1964) [DVDRip, Не тре ...
  • Подпольный обком действует (4 части из 4) (Анатолий Буковский, военный, 197 ...
  • В лесах под Ковелем (3 части из 3) (Юрий Тупицкий, военный, история, 1984) ...
  • Тихий Дон (Сергей Герасимов) [1957, Драма,Исторический, военный, DVDRip]
  • ТИХИЙ ДОН (Сергей Герасимов) [1957 г., историческая драма, VHSRip]
  • Гений (2 части из 2) (Виктор Сергеев, Комедия, криминал, 1991) [DVDRip, Не ...
  • Дядюшкин сон (2 части из2) (Александр Орлов, драма, комедия, 1981) [DVDRip, ...
  • Моонзунд (2 части из 2) (Александр Муратов, драма, мелодрама, военный, исто ...
  • Неизвестный солдат (3 части из 3) (Григорий Аронов, Вадим Зобин, драма, 198 ...
  • Информация
    Посетители, находящиеся в группе Гости, не могут оставлять комментарии к данной публикации.