вход на сайт

Имя пользователя :
Пароль :

Восстановление пароля Регистрация
Снежная королева (Геннадий Казанский, фэнтези, драма, приключения, семейный, 1966) [DVDRip, Не требуется]
Рейтинг:
(голосов: 1)



[img]{THEME}/images/logopost.png[/img]



Снежная королева

Год выпуска: 1966
Страна: СССР
Производство: Ленфильм
Жанр: фэнтези, драма, приключения, семейный

Режиссёр: Геннадий Казанский
В ролях: Елена Проклова, Слава Цюпа, Евгения Мельникова, Наталья Климова, Николай Боярский, Евгений Леонов, Ирина Губанова, Георгий Корольчук, Ольга Викланд, Эра Зиганшина

Перевод: Не требуется
Субтитры: Отсутствуют

Описание:
Фильм-сказка повествует о необыкновенном путешествии скромной маленькой девочки Герды. Она разыскивает своего друга Кея, которого похитила и унесла в свое царство Снежная королева — могущественная злая волшебница.

В поисках любимого друга Герда попадает в замок к хитрому, коварному и в то же время смешному королю, знакомится с лесными разбойниками. На пути у девочки будет много преград до решающей битвы со Снежной королевой. Но верное сердце Герды одолеет все невзгоды…


Дополнительно:
MediaInfo ▼Text
Общее
Полное имя :J:Снежная королеваSnezhnaya koroleva.avi
Формат :AVI
Размер :700 MiB
Продолжительность :01:19:38.760
Общий поток :1 229 Kbps
Программа кодирования :VirtualDubModRus 1.5.10.2 (build 2542/release)
Библиотека кодирования :VirtualDubMod build 2542/release

Видео
Идентификатор :0
Формат :MPEG-4 Visual
Параметр BVOP формата :1
Параметр Qpel формата :No
Параметр GMC формата :0
Параметр Matrix формата :Default (H.263)
Идентификатор кодека :DX50
Продолжительность :1h 19mn 38s 760ms
Битрейт :1 092 Kbps
Ширина :672 pixels
Высота :272 pixels
Соотношение сторон :2.471
Частота кадров :25.000 fps
Глубина цвета :8 bits
Подвыборка цветности :4:2:0
Цветовое пространство :YUV
Тип развертки :Progressive
Бит/(Пиксели*Кадры) :0.239
Размер потока :622 MiB (89%)
Библиотека кодирования :DivX503b2676p

Аудио #1
Идентификатор :1
Формат :MPEG Audio
Идентификатор кодека :55
Продолжительность :01:19:38.760
Вид битрейта :Constant
Битрейт :128 Kbps
Канал(ы) :2 channels
Частота :48.0 KHz
Метод сжатия :Lossy
Размер потока :72.9 MiB (10%)



Тех. данные:
Качество:
e13f92a8771f3005a9f653dcd39f0d6917e1e62fСнежная королева (Геннадий Казанский, фэнтези, драма, приключения, семейный, 1966) [DVDRip, Не требуется] Снежная королева (Геннадий Казанский, фэнтези, драма, приключения, семейный, 1966) [DVDRip, Не требуется] " />

Аплоадер: Админ, дата: 29-12-2012, 23:38, торрент скачан: 359 раз

Понравилась раздача? Посмотрите эти:
  • Вертикаль (Борис Дуров, Станислав Говорухин, приключения, 1966) [DVDRip, Не ...
  • Акваланги на дне (Евгений Шерстобитов, боевик, приключения, семейный, 1965) ...
  • Выстрел (Наум Трахтенберг, драма, 1966) [DVDRip, Не требуется]
  • Пакет (Владимир Назаров, комедия, приключения, семейный, 1965) [DVDRip, Не ...
  • [3D] Снежная королева (Максим Свешников, Владлен Барбэ, Мультфильм, Фэнтези ...
  • Новогодние приключения Маши и Вити (Геннадий Казанский, Игорь Усов, фэнтези ...
  • Двенадцать месяцев (2 части из 2) (Анатолий Граник, фэнтези, семейный, 1972 ...
  • Снежная королева (Максим Свешников, Владлен Барбэ, Мультфильм, фэнтези, при ...
  • Снежная королева (Максим Свешников, Владлен Барбэ, Мультфильм, фэнтези, при ...
  • Начальник Чукотки (Виталий Мельников, драма, комедия, приключения, история, ...
  • На графских развалинах (Владимир Скуйбин, приключения, семейный, 1957) [DVD ...
  • Мама (Элизабета Бостан, мюзикл, фэнтези, семейный, 1976) [DVDRip, Не требуе ...
  • Снежная королева (Геннадий Казанский, Сказка, 1966) [DVDRip - AVC, Оригинал ...
  • Тайна Снежной королевы (Николай Александрович, мюзикл, фэнтези, семейный, 1 ...
  • Мульт-Салют. 9 ч. из 30: В некотором царстве…/Снежная королева (Иван Иванов ...
  • Как Иванушка-дурачок за чудом ходил (Надежда Кошеверова, фэнтези, семейный, ...
  • Садко (Александр Птушко, фэнтези, приключения, 1952) [DVDRip, Не требуется] ...
  • Снежная сказка (Алексей Сахаров, Эльдар Шенгелая, фэнтези, 1959) [DVDRip, Н ...
  • Пока бьют часы (Геннадий Васильев, фэнтези, семейный, 1976) [DVDRip, Не тре ...
  • Тайна Снежной Королевы (Н.Александрович, сказка, 1986) [TVRip, не требуется ...
  • Информация
    Посетители, находящиеся в группе Гости, не могут оставлять комментарии к данной публикации.