вход на сайт

Имя пользователя :
Пароль :

Восстановление пароля Регистрация
Сказка о царе Салтане (Александр Птушко, фэнтези, семейный, 1967) [DVDRip, Не требуется]
Рейтинг:
(голосов: 1)



[img]{THEME}/images/logopost.png[/img]



Сказка о царе Салтане

Год выпуска: 1967
Страна: СССР
Производство: Мосфильм
Жанр: фэнтези, семейный

Режиссёр: Александр Птушко
В ролях: Владимир Андреев, Лариса Голубкина, Олег Видов, Ксения Рябинкина, Николай Бармин, Яков Беленький, Нина Беляева, Борис Битюков, Юрий Чекулаев, Анатолий Дегтярь

Перевод: Не требуется
Субтитры: Отсутствуют

Описание:
Три девицы под окном пряли поздно вечерком… А потом много чего было: и любовь, и клевета, и предательство, и чудеса, и множество волшебных приключений, и тридцать три богатыря, и, конечно же, счастливый конец…


Дополнительно:
Знаете ли вы, что... ▼
Лента снималась в Крыму и Московской области.

MediaInfo ▼Text
Общее
Полное имя :D:. РАЗДАЧАСказка о царе СалтанеSkazka o tsare Saltane.avi
Формат :AVI
Размер :1.06 GiB
Продолжительность :01:21:39.528
Общий поток :1 865 Kbps
Программа кодирования :VirtualDubMod 1.5.10.2 (build 2540/release)
Библиотека кодирования :VirtualDubMod build 2540/release

Видео
Идентификатор :0
Формат :MPEG-4 Visual
Профиль формата :Advanced [email protected]
Параметр BVOP формата :3
Параметр Qpel формата :Yes
Параметр GMC формата :3
Параметр Matrix формата :Default (H.263)
Идентификатор кодека :XVID
Продолжительность :1h 21mn 39s 520ms
Битрейт :1 728 Kbps
Ширина :720 pixels
Высота :304 pixels
Соотношение сторон :2.368
Частота кадров :25.000 fps
Глубина цвета :8 bits
Подвыборка цветности :4:2:0
Цветовое пространство :YUV
Тип развертки :Progressive
Бит/(Пиксели*Кадры) :0.316
Размер потока :1 009 MiB (93%)
Библиотека кодирования :XviD0047

Аудио #1
Идентификатор :1
Формат :MPEG Audio
Идентификатор кодека :55
Продолжительность :01:21:39.528
Вид битрейта :Constant
Битрейт :128 Kbps
Канал(ы) :2 channels
Частота :48.0 KHz
Метод сжатия :Lossy
Размер потока :74.8 MiB (7%)



Тех. данные:
Качество:DVDRip
Продолжительность:01:21:38 час

Формат: AVI
Видео кодек: XviD
Ауди
6814d9274866efa545ec5c02a255837d58795344Сказка о царе Салтане (Александр Птушко, фэнтези, семейный, 1967) [DVDRip, Не требуется] Сказка о царе Салтане (Александр Птушко, фэнтези, семейный, 1967) [DVDRip, Не требуется] " />

Аплоадер: Админ, дата: 29-12-2012, 23:10, торрент скачан: 359 раз

Понравилась раздача? Посмотрите эти:
  • Бой под Соколом (Александр Разумный, военный, 1942) [DVDRip, Не требуется]
  • Алые паруса (Александр Птушко, фэнтези, драма, мелодрама, 1961) [DVDRip, Не ...
  • Акваланги на дне (Евгений Шерстобитов, боевик, приключения, семейный, 1965) ...
  • Бабье царство (Алексей Салтыков, драма, 1967) [DVDRip, Не требуется]
  • Всадник на золотом коне (Василий Журавлев, фэнтези, 1980) [DVDRip, Не требу ...
  • Двенадцать месяцев (2 части из 2) (Анатолий Граник, фэнтези, семейный, 1972 ...
  • Иван да Марья (Борис Рыцарев, фэнтези, мелодрама, комедия, семейный, музыка ...
  • Комиссар (Александр Аскольдов, драма, военный, 1967) [DVDRip, Не требуется] ...
  • Огонь, вода и ... медные трубы // Золотые рога // Варвара-краса, длинная ко ...
  • Царевич Проша (Надежда Кошеверова, фэнтези, семейный, 1947) [DVDRip, Не тре ...
  • Сказка о царе Салтане (Иван Иванов-Вано, Лев Мильчин, Сказка, 1984) [DVDRip ...
  • Сказка о царе Салтане (Иван Иванов-Вано, Лев Мильчин, сказка, 1984) [DVDRip ...
  • Подарок чёрного колдуна (Борис Рыцарев, фэнтези, приключения, семейный, 197 ...
  • Новые похождения Кота в сапогах // Марья-искусница (Александр Роу, фэнтези, ...
  • По щучьему веленью // Конек-Горбунок (Александр Роу, фэнтези, семейный, 193 ...
  • Старая, старая сказка (Надежда Кошеверова, фэнтези, семейный, 1968) [DVDRip ...
  • Я вас любил... (Илья Фрэз, мелодрама, комедия, 1967) [DVDRip, Не требуется] ...
  • Руслан и Людмила (2 части из 2) (Александр Птушко, фэнтези, детектив, 1972) ...
  • Садко (Александр Птушко, фэнтези, приключения, 1952) [DVDRip, Не требуется] ...
  • Сказка о потерянном времени (Александр Птушко, фэнтези, комедия, семейный, ...
  • Пока бьют часы (Геннадий Васильев, фэнтези, семейный, 1976) [DVDRip, Не тре ...
  • А.С. Пушкин. Сказка о царе Салтане (mp3, 128)
  • Сказка о царе Салтане (Александр Птушко, Сказка, 1966) [DVDRip]
  • Таинственный остров / Остров приключений / Mysterious Island (Сай Эндфилд, ...
  • Каин XVIII (Надежда Кошеверова, Михаил Шапиро, фэнтези, мелодрама, приключе ...
  • Информация
    Посетители, находящиеся в группе Гости, не могут оставлять комментарии к данной публикации.