вход на сайт

Имя пользователя :
Пароль :

Восстановление пароля Регистрация
Садко (Александр Птушко, фэнтези, приключения, 1952) [DVDRip, Не требуется]
Рейтинг:
(голосов: 1)



[img]{THEME}/images/logopost.png[/img]



Садко

Год выпуска: 1952
Страна: СССР
Производство: Мосфильм
Жанр: фэнтези, приключения

Режиссёр: Александр Птушко
В ролях: Сергей Столяров, Алла Ларионова, Нинель Мышкова, Б. Суровцев, Михаил Трояновский, Надир Малишевский, Николай Крючков, Иван Переверзев, Юрий Леонидов, Лев Фенин

Перевод: Не требуется
Субтитры: Отсутствуют

Описание:
После долгих странствий по свету Садко — гусляр и купец — возвращается домой, в Великий Новгород. Может быть, здесь он найдет свое счастье?! Фильм снят по мотивам онежских былин.


Дополнительно:
MediaInfo ▼Text
Общее
Полное имя :J:СадкоSadko.DVDRip.avi
Формат :AVI
Размер :1.46 GiB
Продолжительность :01:24:40.600
Общий поток :2 472 Kbps
Программа кодирования :VirtualDubModRus 1.5.10.2 (build 2542/release)
Библиотека кодирования :VirtualDubMod build 2542/release

Видео
Идентификатор :0
Формат :MPEG-4 Visual
Параметр BVOP формата :1
Параметр Qpel формата :No
Параметр GMC формата :0
Параметр Matrix формата :Default (H.263)
Идентификатор кодека :DX50
Продолжительность :1h 24mn 40s 600ms
Битрейт :2 015 Kbps
Ширина :704 pixels
Высота :528 pixels
Соотношение сторон :1.333
Частота кадров :25.000 fps
Глубина цвета :8 bits
Подвыборка цветности :4:2:0
Цветовое пространство :YUV
Тип развертки :Progressive
Бит/(Пиксели*Кадры) :0.217
Размер потока :1.19 GiB (81%)
Библиотека кодирования :DivX503b2676p

Аудио #1
Идентификатор :1
Формат :AC-3
Формат/Информация :Audio Coding 3
Идентификатор кодека :2000
Продолжительность :01:24:40.544
Вид битрейта :Constant
Битрейт :448 Kbps
Канал(ы) :6 channels
Расположение каналов :Front: L C R, Side: L R, LFE
Частота :48.0 KHz
Битовая глубина :16 bits
Метод сжатия :Lossy
Размер потока :271 MiB (18%)



Тех. данные:
Качество:DVDRip
Продолжительность:01:24:40 час

Формат: AVI
Видео кодек: DivX
Аудио
36be0bdc92722203a5cb89c11e8b75bd7012d4e5Садко (Александр Птушко, фэнтези, приключения, 1952) [DVDRip, Не требуется] Садко (Александр Птушко, фэнтези, приключения, 1952) [DVDRip, Не требуется] " />

Аплоадер: Админ, дата: 29-12-2012, 22:59, торрент скачан: 359 раз

Понравилась раздача? Посмотрите эти:
  • На подмостках сцены (Константин Юдин, драма, комедия, 1956) [DVDRip, Не тре ...
  • Алые паруса (Александр Птушко, фэнтези, драма, мелодрама, 1961) [DVDRip, Не ...
  • Шанс (Александр Майоров, фантастика, фэнтези, мелодрама, комедия, приключен ...
  • Четвертый (Александр Столпер, драма, 1972) [DVDRip, Не требуется]
  • Гиперболоид инженера Гарина (Александр Гинцбург, фантастика, 1965) [DVDRip, ...
  • Илья Муромец (Александр Птушко, фэнтези, 1956) [DVDRip-AVC, Не требуется, С ...
  • Мама (Элизабета Бостан, мюзикл, фэнтези, семейный, 1976) [DVDRip, Не требуе ...
  • Комиссар (Александр Аскольдов, драма, военный, 1967) [DVDRip, Не требуется] ...
  • Чайка (Юлий Карасик, драма, 1972) [DVDRip, Не требуется]
  • Как Иванушка-дурачок за чудом ходил (Надежда Кошеверова, фэнтези, семейный, ...
  • Майская ночь, или Утопленница (Александр Роу, фэнтези, комедия, 1952) [DVDR ...
  • Слушать в отсеках (2 части из 2) (Николай Засеев-Руденко, приключения, 1985 ...
  • Светлая личность (Александр Павловский, мюзикл, комедия, 1989) [DVDRip, Не ...
  • Руслан и Людмила (2 части из 2) (Александр Птушко, фэнтези, детектив, 1972) ...
  • Проделки в старинном духе (Александр Панкратов, комедия, 1986) [DVDRip, Не ...
  • Сказка о потерянном времени (Александр Птушко, фэнтези, комедия, семейный, ...
  • Сказка о царе Салтане (Александр Птушко, фэнтези, семейный, 1967) [DVDRip, ...
  • Пока бьют часы (Геннадий Васильев, фэнтези, семейный, 1976) [DVDRip, Не тре ...
  • Садко (Александр Птушко, Детский / Семейный , 1952) [DVDRip, оригинал]
  • Болотные солдаты (Александр Мачерет, драма, военный, 1938) [DVDRip, Не треб ...
  • Драгоценный подарок (Александр Роу, семейный, 1956) [DVDRip, Не требуется]
  • Белый клык (Александр Згуриди, приключения, 1947) [DVDRip, Не требуется]
  • Вера, надежда, любовь (Владимир Грамматиков, приключения, 1984) [DVDRip, Не ...
  • Каин XVIII (Надежда Кошеверова, Михаил Шапиро, фэнтези, мелодрама, приключе ...
  • За облаками – небо (Юрий Егоров, драма, 1973) [DVDRip, Не требуется]
  • Информация
    Посетители, находящиеся в группе Гости, не могут оставлять комментарии к данной публикации.