вход на сайт

Имя пользователя :
Пароль :

Восстановление пароля Регистрация
Судьба человека (Сергей Бондарчук, драма, военный, биография, 1959) [DVDRip, Не требуется]
Рейтинг:
(голосов: 1)



[img]{THEME}/images/logopost.png[/img]



Судьба человека

Год выпуска: 1959
Страна: СССР
Производство: Мосфильм
Жанр: драма, военный, биография

Режиссёр: Сергей Бондарчук
В ролях: Сергей Бондарчук, Павел Полунин, Зинаида Кириенко, Павел Волков, Юрий Аверин, Кирилл Алексеев, Павел Винников, Евгений Тетерин, Анатолий Чемодуров, Лев Борисов

Перевод: Не требуется
Субтитры: Отсутствуют

Описание:
Фильм рассказывает о русском солдате, которого война подвергла страшным испытаниям, лишила дома и семьи, бросила в концлагерь. Но судьба не сломила его дух — он выжил, отстоял своё право быть человеком, сохранил способность любить…


Дополнительно:
MediaInfo ▼Text
Общее
Полное имя :D:Судьба человекаSudba cheloveka.1959.avi
Формат :AVI
Размер :1.46 GiB
Продолжительность :01:36:37.040
Общий поток :2 157 Kbps
Программа кодирования :VirtualDubMod 1.5.10.2 (build 2540/release)

Видео
Идентификатор :0
Формат :MPEG-4 Visual
Профиль формата :Advanced [email protected]
Параметр BVOP формата :2
Параметр Qpel формата :No
Параметр GMC формата :0
Параметр Matrix формата :Custom
Идентификатор кодека :XVID
Продолжительность :1h 36mn 37s 40ms
Битрейт :1 699 Kbps
Ширина :704 pixels
Высота :528 pixels
Соотношение сторон :1.333
Частота кадров :25.000 fps
Глубина цвета :8 bits
Подвыборка цветности :4:2:0
Цветовое пространство :YUV
Тип развертки :Progressive
Бит/(Пиксели*Кадры) :0.183
Размер потока :1.15 GiB (79%)
Библиотека кодирования :XviD0056

Аудио #1
Идентификатор :1
Формат :AC-3
Формат/Информация :Audio Coding 3
Идентификатор кодека :2000
Продолжительность :01:36:36.636
Вид битрейта :Constant
Битрейт :448 Kbps
Канал(ы) :6 channels
Расположение каналов :Front: L C R, Side: L R, LFE
Частота :48.0 KHz
Битовая глубина :16 bits
Метод сжатия :Lossy
Размер потока :310 MiB (21%)



Тех. данные:
Качество:DVDRip
Продолжительность:01:36:30 час
&nb
4218abe795ff88b9a39e7e95c583dd46e37e8da4Судьба человека (Сергей Бондарчук, драма, военный, биография, 1959) [DVDRip, Не требуется] Судьба человека (Сергей Бондарчук, драма, военный, биография, 1959) [DVDRip, Не требуется] " />

Аплоадер: Админ, дата: 27-12-2012, 23:23, торрент скачан: 359 раз

Понравилась раздача? Посмотрите эти:
  • Они сражались за Родину (Сергей Бондарчук, драма, военный, история, 1975г. ...
  • О чем шумит река (Григорий Мелик-Авакян, драма, 1959) [DVDRip, Не требуется ...
  • Завтра была война (Юрий Кара, драма, семейный, военный, 1987) [DVDRip, Не т ...
  • Дама с собачкой (Иосиф Хейфиц, драма, мелодрама, 1959) [DVDRip, Не требуетс ...
  • Баллада о солдате (Григорий Чухрай, драма, мелодрама, военный, 1959) [DVDRi ...
  • Ссора в Лукашах (Максим Руф, мюзикл, комедия, 1959) [DVDrip, Не требуется]
  • Левша (Сергей Овчаров, драма, комедия, 1986) [DVDRip, Не требуется]
  • Комиссар (Александр Аскольдов, драма, военный, 1967) [DVDRip, Не требуется] ...
  • Повесть о настоящем человеке (Александр Столпер, драма, военный, 1948) [DVD ...
  • Дядя Ваня (Андрей Кончаловский, драма, 1971) [DVDRip, Не требуется]
  • Степь (2 части из 2) (Сергей Бондарчук, драма, история, 1977) [DVDRip, Не т ...
  • Сибириада (4 части из 4) (Андрей Кончаловский, драма, военный, история, 197 ...
  • Юность Петра (Сергей Герасимов, драма, биография, 1980) [DVDRip, Не требует ...
  • Солдатка (Владимир Денисенко, драма, 1959) [DVDRip, Не требуется]
  • В начале славных дел (Сергей Герасимов, драма, история, 1980) [DVDRip, Не т ...
  • Тихий Дон (3 части из 3) (Сергей Герасимов, драма, военный, 1957) [DVDRip, ...
  • Судьба Человека (Сергей Бондарчук, драма, военный, биография, 1959) [DVDRip ...
  • Судьба Человека (Сергей Бондарчук, драма, военный, биография, 1959) [DVDRip ...
  • Адмирал Нахимов (Всеволод Пудовкин, драма, военный, биография, история, 194 ...
  • Суворов (Михаил Доллер, Всеволод Пудовкин, драма, военный, биография, истор ...
  • Информация
    Посетители, находящиеся в группе Гости, не могут оставлять комментарии к данной публикации.